<?xml version="1.0" standalone="no"?>
<!DOCTYPE svg PUBLIC "-//W3C//DTD SVG 1.1//EN" "http://www.w3.org/Graphics/SVG/1.1/DTD/svg11.dtd" >
<svg xmlns="http://www.w3.org/2000/svg">
<metadata>
<json>
<![CDATA[
{
	"fontFamily": "eaicon",
	"majorVersion": 1,
	"minorVersion": 0,
	"version": "Version 1.0",
	"fontId": "eaicon",
	"psName": "eaicon",
	"subFamily": "Regular",
	"fullName": "eaicon",
	"description": "Font generated by IcoMoon."
}
]]>
</json>
</metadata>
<defs>
<font id="eaicon" horiz-adv-x="1024">
<font-face units-per-em="1024" ascent="960" descent="-64" />
<missing-glyph horiz-adv-x="1024" />
<glyph unicode="&#x20;" horiz-adv-x="512" d="" />
<glyph unicode="&#xe900;" glyph-name="advance-tooltip" data-tags="advance-tooltip" horiz-adv-x="965" d="M564.663 559.177h-370.103c-5.851 0-16.091-5.851-16.091-16.091 0-5.851 5.851-16.091 16.091-16.091h370.103c5.851 0 16.091 5.851 16.091 16.091 1.463 4.389-4.389 16.091-16.091 16.091zM333.531 455.314h-138.971c-5.851 0-16.091-5.851-16.091-16.091 0-5.851 5.851-16.091 16.091-16.091h138.971c5.851 0 16.091 5.851 16.091 16.091 1.463 5.851-4.389 16.091-16.091 16.091zM838.217 834.194c-55.589 0-99.474-36.571-119.954-83.383h-671.451c-27.794 0-46.811-19.017-46.811-46.811v-478.354c0-27.794 19.017-46.811 46.811-46.811h39.497v-130.194c0-5.851 2.926-11.703 8.777-16.091 8.777-4.389 19.017 0 23.406 5.851l144.823 144.823h617.326c5.851 0 16.091 5.851 16.091 16.091v394.971c40.96 23.406 68.754 64.366 68.754 112.64 0 71.68-58.514 127.269-127.269 127.269zM857.234 219.794h-604.16c-5.851 0-11.703-2.926-14.629-5.851l-117.029-117.029v105.326c1.463 11.703-4.389 17.554-16.091 17.554h-58.514c-2.926 0-8.777 2.926-8.777 8.777v475.429c0 2.926 2.926 8.777 8.777 8.777h665.6v-2.926c0-70.217 55.589-125.806 125.806-125.806 5.851 0 11.703 0 19.017 2.926 0 0 0-367.177 0-367.177zM895.269 645.486c-11.703-11.703-24.869-16.091-39.497-19.017-7.314-1.463-11.703-2.926-19.017-2.926-46.811 0-86.309 39.497-86.309 86.309v1.463c0 14.629 5.851 27.794 11.703 39.497 14.629 24.869 42.423 42.423 74.606 42.423 46.811 0 86.309-39.497 86.309-86.309 0-26.331-10.24-48.274-27.794-61.44z" />
<glyph unicode="&#xe901;" glyph-name="advanced-accordion" data-tags="advanced-accordion" horiz-adv-x="965" d="M216.503 566.491c0 7.314-4.389 14.629-14.629 14.629h-102.4c-10.24 0-14.629-7.314-14.629-14.629s7.314-14.629 14.629-14.629h102.4c10.24 0 14.629 7.314 14.629 14.629zM128.731 209.554h-45.349v45.349c0 7.314-4.389 13.166-13.166 13.166-7.314 0-13.166-4.389-13.166-13.166v-45.349h-43.886c-7.314 0-13.166-4.389-13.166-13.166 0-7.314 4.389-13.166 13.166-13.166h43.886v-43.886c0-7.314 4.389-13.166 13.166-13.166 8.777-1.463 13.166 5.851 13.166 13.166v43.886h45.349c7.314 0 13.166 4.389 13.166 13.166 0 7.314-5.851 13.166-13.166 13.166zM950.857 832.731h-665.6c-10.24 0-14.629-7.314-14.629-14.629v-488.594h-51.2c-10.24 0-14.629-7.314-14.629-14.629v-235.52c-2.926-7.314 4.389-14.629 14.629-14.629h607.086c10.24 0 14.629 7.314 14.629 14.629v220.891h109.714c10.24 0 14.629 7.314 14.629 14.629v503.223c0 10.24-7.314 14.629-14.629 14.629zM810.423 98.377h-573.44v201.874h571.977v-201.874zM931.84 335.36h-631.954v469.577h631.954v-469.577zM428.617 616.229h125.806c13.166 0 20.48 7.314 20.48 14.629 0 10.24-10.24 14.629-20.48 14.629h-125.806c-13.166 0-20.48-7.314-20.48-14.629s10.24-14.629 20.48-14.629zM478.354 566.491c0-7.314 7.314-17.554 14.629-17.554h272.091c10.24 0 14.629 7.314 14.629 14.629s-7.314 17.554-14.629 17.554h-272.091c-10.24 0-14.629-7.314-14.629-14.629zM425.691 548.937c5.851 0 10.24 2.926 13.166 4.389s4.389 7.314 4.389 13.166c0 4.389-2.926 10.24-4.389 13.166-5.851 2.926-17.554 2.926-26.331-1.463-2.926-2.926-4.389-7.314-4.389-13.166 0-4.389 2.926-10.24 4.389-13.166 2.926-2.926 7.314-2.926 13.166-2.926zM765.074 505.051h-272.091c-10.24 0-14.629-7.314-14.629-14.629 0-10.24 7.314-14.629 14.629-14.629h272.091c10.24 0 14.629 7.314 14.629 14.629s-7.314 14.629-14.629 14.629zM425.691 472.869c5.851 0 10.24 2.926 13.166 4.389 2.926 2.926 4.389 7.314 4.389 13.166s-2.926 10.24-4.389 13.166c-5.851 4.389-17.554 4.389-26.331 0-1.463-2.926-4.389-7.314-4.389-13.166s2.926-10.24 4.389-13.166c2.926-2.926 7.314-4.389 13.166-4.389zM412.526 181.76h272.091c10.24 0 14.629 7.314 14.629 14.629 2.926 7.314-4.389 14.629-14.629 14.629h-272.091c-10.24 0-14.629-7.314-14.629-14.629 0-10.24 7.314-14.629 14.629-14.629zM348.16 175.909c4.389 0 10.24 2.926 13.166 4.389 2.926 2.926 4.389 7.314 4.389 13.166s-2.926 10.24-4.389 13.166c-8.777 7.314-20.48 7.314-26.331 0-2.926-2.926-4.389-7.314-4.389-13.166s2.926-10.24 4.389-13.166c2.926-2.926 7.314-4.389 13.166-4.389z" />
<glyph unicode="&#xe902;" glyph-name="advanced-data-table" data-tags="advanced-data-table" horiz-adv-x="965" d="M965.486 876.617v0c-1.463 1.463-2.926 1.463-2.926 2.926-4.389 1.463-8.777 2.926-13.166 2.926h-933.303c-10.24 0-16.091-5.851-16.091-16.091v-838.217c0-10.24 5.851-16.091 16.091-16.091h933.303c10.24 0 16.091 5.851 16.091 16.091v838.217c1.463 4.389 1.463 7.314 0 10.24zM747.52 850.286h185.783v-190.171h-187.246l1.463 190.171zM933.303 626.469v-264.777h-185.783v263.314l185.783 1.463zM507.611 850.286h204.8v-188.709h-203.337v188.709h-1.463zM710.949 626.469v-264.777h-203.337v263.314l203.337 1.463zM266.24 850.286h206.263v-190.171h-206.263c0 0 0 190.171 0 190.171zM472.503 626.469v-264.777h-206.263v263.314l206.263 1.463zM32.183 850.286h198.949v-190.171h-198.949c0 0 0 190.171 0 190.171zM32.183 625.006h198.949v-264.777h-198.949v264.777zM32.183 48.64v277.943h198.949v-277.943h-198.949zM472.503 44.251h-206.263v282.331h206.263v-269.166c0 0 0-13.166 0-13.166zM710.949 44.251h-204.8v282.331h203.337v-273.554l1.463-8.777zM747.52 48.64v277.943h187.246v-277.943h-187.246zM81.92 772.754h84.846v-35.109h-84.846v35.109zM327.68 772.754h84.846v-35.109h-84.846v35.109zM573.44 772.754h84.846v-35.109h-84.846v35.109zM804.571 772.754h84.846v-35.109h-84.846v35.109z" />
<glyph unicode="&#xe903;" glyph-name="advanced-google-maps" data-tags="advanced-google-maps" horiz-adv-x="965" d="M147.749-33.28c-81.92 0-147.749 65.829-147.749 146.286v671.451c0 81.92 65.829 147.749 147.749 147.749h671.451c80.457 0 146.286-65.829 146.286-147.749v-672.914c0-81.92-65.829-147.749-147.749-147.749h-669.989v2.926zM96.549 25.234l13.166-5.851c13.166-5.851 24.869-5.851 38.034-5.851h671.451c13.166 0 24.869 2.926 38.034 5.851l13.166 5.851-387.657 389.12-386.194-389.12zM147.749 881.006c-52.663 0-96.549-43.886-96.549-96.549v-672.914c0-13.166 2.926-24.869 5.851-38.034l5.851-13.166 529.554 529.554-2.926 5.851c-27.794 52.663-40.96 93.623-40.96 125.806 0 52.663 21.943 103.863 57.051 144.823l16.091 16.091h-473.966v-1.463zM517.851 449.463l386.194-386.194 5.851 13.166c5.851 13.166 5.851 24.869 5.851 38.034v469.577l-19.017-30.72c-49.737-84.846-109.714-166.766-122.88-181.394-5.851-5.851-13.166-8.777-19.017-8.777s-16.091 2.926-19.017 8.777c-8.777 13.166-65.829 84.846-112.64 166.766l-5.851 8.777-99.474-98.011zM759.223 881.006c-87.771 0-159.451-71.68-159.451-159.451 0-71.68 125.806-250.149 153.6-285.257l5.851-8.777 5.851 8.777c24.869 35.109 153.6 213.577 153.6 285.257 0 87.771-71.68 159.451-159.451 159.451zM282.331 505.051c-84.846 0-156.526 68.754-156.526 156.526s68.754 156.526 156.526 156.526c40.96 0 81.92-16.091 109.714-46.811 2.926-2.926 5.851-8.777 5.851-19.017 0-8.777-2.926-13.166-5.851-19.017-2.926-2.926-8.777-5.851-19.017-5.851-8.777 0-13.166 2.926-19.017 5.851-19.017 19.017-46.811 30.72-74.606 30.72-59.977 0-106.789-46.811-106.789-106.789s46.811-106.789 106.789-106.789c43.886 0 84.846 27.794 100.937 68.754l5.851 13.166h-103.863c-13.166 0-24.869 13.166-24.869 24.869s13.166 24.869 24.869 24.869h128.731c13.166 0 24.869-13.166 24.869-24.869 0-83.383-68.754-152.137-153.6-152.137z" />
<glyph unicode="&#xe904;" glyph-name="advanced-menu" data-tags="advanced-menu" horiz-adv-x="965" d="M106.789 493.349c-58.514 0-106.789 48.274-106.789 106.789v225.28c0 58.514 48.274 105.326 106.789 105.326h225.28c58.514 0 106.789-48.274 106.789-106.789v-225.28c0-58.514-48.274-106.789-106.789-106.789 0 1.463-225.28 1.463-225.28 1.463zM106.789 869.303c-24.869 0-43.886-20.48-43.886-43.886v-225.28c0-24.869 20.48-43.886 43.886-43.886h225.28c24.869 0 43.886 20.48 43.886 43.886v225.28c0 24.869-20.48 43.886-43.886 43.886h-225.28zM636.343 493.349c-59.977 0-108.251 48.274-108.251 108.251v222.354c0 59.977 48.274 108.251 108.251 108.251h220.891c59.977-1.463 108.251-48.274 108.251-108.251v-220.891c0-59.977-48.274-108.251-108.251-108.251l-220.891-1.463zM636.343 869.303c-24.869 0-45.349-20.48-45.349-45.349v-220.891c0-24.869 20.48-45.349 45.349-45.349h220.891c24.869 0 45.349 20.48 45.349 45.349v220.891c0 24.869-20.48 45.349-45.349 45.349h-220.891zM106.789-34.743c-58.514 0-106.789 48.274-106.789 106.789v223.817c0 58.514 48.274 106.789 106.789 106.789h225.28c58.514 0 106.789-48.274 106.789-106.789v-225.28c0-58.514-48.274-106.789-106.789-106.789h-225.28zM106.789 339.749c-24.869 0-43.886-20.48-43.886-43.886v-225.28c0-24.869 20.48-43.886 43.886-43.886h225.28c24.869 0 43.886 20.48 43.886 43.886v225.28c0 24.869-20.48 43.886-43.886 43.886h-225.28zM636.343-34.743c-59.977 0-108.251 48.274-108.251 108.251v220.891c0 59.977 48.274 108.251 108.251 108.251h220.891c59.977 0 108.251-48.274 108.251-108.251v-222.354c0-59.977-48.274-108.251-108.251-108.251h-220.891zM636.343 339.749c-24.869 0-45.349-20.48-45.349-45.349v-220.891c0-24.869 20.48-45.349 45.349-45.349h220.891c24.869 0 45.349 20.48 45.349 45.349v220.891c0 24.869-20.48 45.349-45.349 45.349 0 0-220.891 0-220.891 0z" />
<glyph unicode="&#xe905;" glyph-name="advanced-tabs" data-tags="advanced-tabs" horiz-adv-x="965" d="M920.137 616.229h-187.246l-68.754 84.846c-5.851 7.314-16.091 10.24-26.331 10.24h-112.64c-10.24 0-17.554-5.851-26.331-10.24l-23.406-27.794-23.406 27.794c-7.314 7.314-17.554 10.24-27.794 10.24h-112.64c-10.24 0-17.554-5.851-26.331-10.24l-20.48-27.794-20.48 27.794c-5.851 7.314-16.091 10.24-26.331 10.24h-114.103c-10.24 0-17.554-5.851-26.331-10.24l-67.291-81.92c-7.314-7.314-10.24-17.554-10.24-30.72v-504.686c0-26.331 23.406-48.274 48.274-48.274h868.937c26.331 0 48.274 23.406 48.274 48.274v484.206c0 27.794-20.48 48.274-45.349 48.274zM523.703 680.594h112.64l54.126-64.366h-166.766l-26.331 33.646 26.331 30.72zM315.977 680.594h112.64l54.126-64.366h-166.766l-26.331 33.646 26.331 30.72zM920.137 70.583h-871.863c-10.24 0-16.091 7.314-16.091 16.091v501.76c0 2.926 2.926 7.314 2.926 10.24l67.291 81.92h112.64l68.754-84.846c5.851-7.314 16.091-10.24 26.331-10.24h607.086c10.24 0 16.091-7.314 16.091-16.091v-484.206h2.926c-1.463-8.777-8.777-14.629-16.091-14.629zM371.566 487.497h-257.463c-17.554 0-30.72-13.166-33.646-33.646v-257.463c0-17.554 13.166-30.72 33.646-33.646h257.463c10.24 0 17.554 5.851 23.406 10.24 0 0 0 0 0 2.926 5.851 5.851 7.314 13.166 7.314 20.48v260.389c0 19.017-14.629 30.72-30.72 30.72zM111.177 199.314v7.314l64.366 118.491 68.754-125.806h-133.12zM282.331 196.389l-13.166 26.331 38.034 68.754 51.2-95.086h-76.069zM371.566 243.2l-36.571 67.291c-5.851 10.24-17.554 17.554-27.794 17.554-13.166 0-23.406-5.851-27.794-17.554l-24.869-52.663-46.811 81.92c-5.851 10.24-17.554 17.554-27.794 17.554-13.166 0-23.406-5.851-27.794-17.554l-38.034-67.291v184.32h257.463v-213.577zM807.497 472.869h-340.846c-10.24 0-16.091-7.314-16.091-16.091 0-10.24 7.314-16.091 16.091-16.091h337.92c10.24 0 16.091 7.314 16.091 16.091 1.463 8.777-5.851 16.091-13.166 16.091zM773.851 407.040h-307.2c-10.24 0-16.091-7.314-16.091-16.091 0-10.24 7.314-16.091 16.091-16.091h307.2c10.24 0 16.091 7.314 16.091 16.091 1.463 8.777-5.851 16.091-16.091 16.091zM722.651 342.674h-256c-10.24 0-16.091-7.314-16.091-16.091 0-10.24 7.314-16.091 16.091-16.091h257.463c10.24 0 16.091 7.314 16.091 16.091 2.926 8.777-4.389 16.091-17.554 16.091zM677.303 278.309h-210.651c-10.24 0-16.091-7.314-16.091-16.091 0-10.24 7.314-16.091 16.091-16.091h207.726c10.24 0 16.091 7.314 16.091 16.091 1.463 8.777-5.851 16.091-13.166 16.091zM629.029 215.406h-160.914c-10.24 0-16.091-7.314-16.091-16.091 0-10.24 7.314-16.091 16.091-16.091h160.914c10.24 0 16.091 7.314 16.091 16.091-1.463 7.314-8.777 16.091-16.091 16.091zM258.926 342.674c26.331 0 48.274 23.406 48.274 48.274 0 26.331-23.406 48.274-48.274 48.274s-48.274-23.406-48.274-48.274 19.017-48.274 48.274-48.274zM258.926 407.040c10.24 0 16.091-7.314 16.091-16.091 0-10.24-7.314-16.091-16.091-16.091-10.24 0-16.091 7.314-16.091 16.091-2.926 8.777 5.851 16.091 16.091 16.091zM160.914 829.806h191.634v-64.366c0-10.24 7.314-16.091 16.091-16.091 10.24 0 16.091 7.314 16.091 16.091v64.366h177.006v-64.366c2.926-10.24 10.24-17.554 17.554-17.554 10.24 0 16.091 7.314 16.091 16.091v62.903c0 17.554-13.166 30.72-33.646 33.646h-400.823c-10.24 0-16.091-7.314-16.091-16.091 0-10.24 7.314-14.629 16.091-14.629z" />
<glyph unicode="&#xe906;" glyph-name="badge" data-tags="badge" d="M913.818 859.648h-803.635c-60.826 0-110.182-49.357-110.182-110.182v-602.931c0-60.826 49.357-110.182 110.182-110.182h803.43c60.826 0 110.182 49.357 110.182 110.182v602.931c0.205 60.826-49.152 110.182-109.978 110.182zM426.394 602.829h-179.814v-111.821h160.563v-77.824h-160.563v-119.194h179.814v-72.499h-270.336v453.222h270.336v-71.885zM800.973 221.286l-31.539 91.136h-181.862l-32.154-91.136h-95.642l166.912 448.307h103.424l166.298-448.307h-95.437zM611.328 381.235h133.734l-66.97 191.283z" />
<glyph unicode="&#xe907;" glyph-name="betterdocs-category-box" data-tags="betterdocs-category-box" horiz-adv-x="965" d="M899.657 933.669h-835.291c-35.109 0-65.829-27.794-65.829-65.829v-835.291c0-35.109 30.72-65.829 65.829-65.829h835.291c35.109 0 65.829 30.72 65.829 65.829v835.291c0 38.034-26.331 65.829-65.829 65.829zM930.377 806.4v-773.851c0-16.091-16.091-30.72-30.72-30.72h-835.291c-16.091 0-30.72 16.091-30.72 30.72v835.291c0 16.091 16.091 30.72 30.72 30.72h835.291c16.091 0 30.72-16.091 30.72-30.72v-61.44zM304.274 581.12h-149.211c-17.554 0-30.72-13.166-30.72-30.72v-175.543c1.463-10.24 5.851-17.554 11.703-23.406 5.851-4.389 11.703-7.314 19.017-7.314h152.137c17.554 0 27.794 13.166 27.794 27.794v178.469c0 17.554-14.629 30.72-30.72 30.72zM304.274 374.857h-144.823v172.617h144.823v-172.617zM204.8 475.794h49.737c8.777 0 14.629 7.314 14.629 14.629 0 8.777-7.314 14.629-14.629 14.629h-49.737c-8.777 0-14.629-7.314-14.629-14.629s5.851-14.629 14.629-14.629zM204.8 412.891h49.737c8.777 0 14.629 7.314 14.629 14.629 0 8.777-7.314 14.629-14.629 14.629h-49.737c-8.777 0-14.629-7.314-14.629-14.629s5.851-14.629 14.629-14.629zM555.886 581.12h-147.749c-17.554 0-30.72-13.166-30.72-30.72v-175.543c1.463-10.24 5.851-17.554 11.703-23.406 5.851-4.389 11.703-7.314 19.017-7.314h150.674c17.554 0 27.794 13.166 27.794 27.794v178.469c1.463 17.554-13.166 30.72-30.72 30.72zM555.886 374.857h-144.823v172.617h144.823v-172.617zM457.874 475.794h49.737c8.777 0 14.629 7.314 14.629 14.629 0 8.777-7.314 14.629-14.629 14.629h-49.737c-8.777 0-14.629-7.314-14.629-14.629s5.851-14.629 14.629-14.629zM457.874 412.891h49.737c8.777 0 14.629 7.314 14.629 14.629 0 8.777-7.314 14.629-14.629 14.629h-49.737c-8.777 0-14.629-7.314-14.629-14.629s5.851-14.629 14.629-14.629zM808.96 581.12h-147.749c-17.554 0-30.72-13.166-30.72-30.72v-175.543c1.463-10.24 5.851-17.554 11.703-23.406 5.851-4.389 11.703-7.314 19.017-7.314h150.674c17.554 0 27.794 13.166 27.794 27.794v178.469c0 17.554-13.166 30.72-30.72 30.72zM808.96 374.857h-144.823v172.617h144.823c0 0 0-172.617 0-172.617zM710.949 475.794h49.737c8.777 0 14.629 7.314 14.629 14.629 0 8.777-7.314 14.629-14.629 14.629h-49.737c-8.777 0-14.629-7.314-14.629-14.629s5.851-14.629 14.629-14.629zM710.949 412.891h49.737c8.777 0 14.629 7.314 14.629 14.629 0 8.777-7.314 14.629-14.629 14.629h-49.737c-8.777 0-14.629-7.314-14.629-14.629s5.851-14.629 14.629-14.629zM304.274 310.491h-149.211c-17.554 0-30.72-13.166-30.72-30.72v-175.543c1.463-10.24 5.851-17.554 11.703-23.406 5.851-4.389 11.703-7.314 19.017-7.314h152.137c17.554 0 27.794 13.166 27.794 27.794v177.006c0 17.554-14.629 32.183-30.72 32.183zM304.274 104.229h-144.823v171.154h144.823v-171.154zM204.8 205.166h49.737c8.777 0 14.629 7.314 14.629 14.629s-7.314 14.629-14.629 14.629h-49.737c-8.777 0-14.629-7.314-14.629-14.629s5.851-14.629 14.629-14.629zM204.8 142.263h49.737c8.777 0 14.629 7.314 14.629 14.629 0 8.777-7.314 14.629-14.629 14.629h-49.737c-8.777 0-14.629-7.314-14.629-14.629s5.851-14.629 14.629-14.629zM555.886 310.491h-147.749c-17.554 0-30.72-13.166-30.72-30.72v-175.543c1.463-10.24 5.851-17.554 11.703-23.406 5.851-4.389 11.703-7.314 19.017-7.314h150.674c17.554 0 27.794 13.166 27.794 27.794v177.006c1.463 17.554-13.166 32.183-30.72 32.183zM555.886 104.229h-144.823v171.154h144.823v-171.154zM457.874 205.166h49.737c8.777 0 14.629 7.314 14.629 14.629s-7.314 14.629-14.629 14.629h-49.737c-8.777 0-14.629-7.314-14.629-14.629s5.851-14.629 14.629-14.629zM457.874 142.263h49.737c8.777 0 14.629 7.314 14.629 14.629 0 8.777-7.314 14.629-14.629 14.629h-49.737c-8.777 0-14.629-7.314-14.629-14.629s5.851-14.629 14.629-14.629zM808.96 310.491h-147.749c-17.554 0-30.72-13.166-30.72-30.72v-175.543c1.463-10.24 5.851-17.554 11.703-23.406 5.851-4.389 11.703-7.314 19.017-7.314h150.674c17.554 0 27.794 13.166 27.794 27.794v177.006c0 17.554-13.166 32.183-30.72 32.183zM808.96 104.229h-144.823v171.154h144.823c0 0 0-171.154 0-171.154zM710.949 205.166h49.737c8.777 0 14.629 7.314 14.629 14.629s-7.314 14.629-14.629 14.629h-49.737c-8.777 0-14.629-7.314-14.629-14.629s5.851-14.629 14.629-14.629zM710.949 142.263h49.737c8.777 0 14.629 7.314 14.629 14.629 0 8.777-7.314 14.629-14.629 14.629h-49.737c-8.777 0-14.629-7.314-14.629-14.629s5.851-14.629 14.629-14.629zM807.497 809.326h-650.971c-19.017 0-35.109-16.091-35.109-35.109v-80.457c2.926-11.703 7.314-20.48 14.629-26.331 5.851-5.851 13.166-8.777 21.943-8.777h653.897c19.017 0 30.72 16.091 30.72 30.72v86.309c0 19.017-16.091 33.646-35.109 33.646zM807.497 693.76h-554.423v77.531h554.423v-77.531z" />
<glyph unicode="&#xe908;" glyph-name="betterdocs-category-grid" data-tags="betterdocs-category-grid" horiz-adv-x="965" d="M896.731 927.817h-827.977c-35.109 0-65.829-26.331-65.829-65.829v-829.44c0-35.109 30.72-65.829 65.829-65.829h829.44c35.109 0 65.829 30.72 65.829 65.829v829.44c-1.463 39.497-27.794 65.829-67.291 65.829zM927.451 800.549v-766.537c0-14.629-14.629-30.72-30.72-30.72h-827.977c-14.629 0-30.72 14.629-30.72 30.72v827.977c0 14.629 14.629 30.72 30.72 30.72h829.44c14.629 0 29.257-14.629 29.257-30.72v-61.44zM305.737 544.549h-147.749c-17.554 0-30.72-13.166-30.72-30.72v-248.686c1.463-10.24 5.851-17.554 11.703-23.406 5.851-4.389 11.703-7.314 19.017-7.314h150.674c17.554 0 27.794 13.166 27.794 27.794v251.611c0 17.554-14.629 30.72-30.72 30.72zM305.737 266.606h-144.823v244.297h143.36v-244.297h1.463zM207.726 440.686h48.274c8.777 0 14.629 7.314 14.629 14.629 0 8.777-5.851 14.629-14.629 14.629h-48.274c-8.777 0-14.629-7.314-14.629-14.629s5.851-14.629 14.629-14.629zM207.726 377.783h48.274c8.777 0 14.629 5.851 14.629 14.629s-5.851 14.629-14.629 14.629h-48.274c-8.777 0-14.629-5.851-14.629-14.629 0-7.314 5.851-14.629 14.629-14.629zM555.886 544.549h-146.286c-17.554 0-30.72-13.166-30.72-30.72v-248.686c1.463-10.24 5.851-17.554 11.703-23.406 5.851-4.389 11.703-7.314 19.017-7.314h149.211c17.554 0 27.794 13.166 27.794 27.794v251.611c0 17.554-13.166 30.72-30.72 30.72zM555.886 266.606h-143.36v244.297h143.36v-244.297zM457.874 440.686h48.274c8.777 0 14.629 7.314 14.629 14.629 0 8.777-5.851 14.629-14.629 14.629h-48.274c-8.777 0-14.629-7.314-14.629-14.629s7.314-14.629 14.629-14.629zM457.874 377.783h48.274c8.777 0 14.629 5.851 14.629 14.629s-5.851 14.629-14.629 14.629h-48.274c-8.777 0-14.629-5.851-14.629-14.629 0-7.314 7.314-14.629 14.629-14.629zM807.497 544.549h-147.749c-17.554 0-30.72-13.166-30.72-30.72v-248.686c1.463-10.24 5.851-17.554 11.703-23.406 5.851-4.389 11.703-7.314 19.017-7.314h150.674c17.554 0 27.794 13.166 27.794 27.794v251.611c0 17.554-13.166 30.72-30.72 30.72zM807.497 266.606h-143.36v244.297h143.36v-244.297zM709.486 440.686h48.274c8.777 0 14.629 7.314 14.629 14.629 0 8.777-5.851 14.629-14.629 14.629h-48.274c-8.777 0-14.629-7.314-14.629-14.629s5.851-14.629 14.629-14.629zM709.486 377.783h48.274c8.777 0 14.629 5.851 14.629 14.629s-5.851 14.629-14.629 14.629h-48.274c-8.777 0-14.629-5.851-14.629-14.629 0-7.314 5.851-14.629 14.629-14.629zM207.726 317.806h48.274c8.777 0 14.629 5.851 14.629 14.629s-5.851 14.629-14.629 14.629h-48.274c-8.777 0-14.629-5.851-14.629-14.629 0-7.314 5.851-14.629 14.629-14.629zM457.874 317.806h48.274c8.777 0 14.629 5.851 14.629 14.629s-5.851 14.629-14.629 14.629h-48.274c-8.777 0-14.629-5.851-14.629-14.629 0-7.314 7.314-14.629 14.629-14.629zM709.486 317.806h48.274c8.777 0 14.629 5.851 14.629 14.629s-5.851 14.629-14.629 14.629h-48.274c-8.777 0-14.629-5.851-14.629-14.629 0-7.314 5.851-14.629 14.629-14.629zM806.034 782.994h-646.583c-19.017 0-35.109-14.629-35.109-35.109v-80.457c1.463-11.703 7.314-20.48 13.166-26.331s13.166-8.777 21.943-8.777h649.509c19.017 0 30.72 14.629 30.72 30.72v84.846c0 20.48-14.629 35.109-33.646 35.109zM806.034 668.891h-550.034v76.069h550.034v-76.069z" />
<glyph unicode="&#xe909;" glyph-name="betterdocs-search-form" data-tags="betterdocs-search-form" horiz-adv-x="965" d="M899.657 930.743h-833.829c-35.109 0-65.829-26.331-65.829-65.829v-833.829c0-35.109 30.72-65.829 65.829-65.829h833.829c35.109 0 65.829 30.72 65.829 65.829v833.829c0 39.497-26.331 65.829-65.829 65.829zM930.377 803.474v-772.389c0-16.091-16.091-30.72-30.72-30.72h-833.829c-16.091 0-30.72 16.091-30.72 30.72v833.829c0 16.091 16.091 30.72 30.72 30.72h833.829c16.091 0 30.72-16.091 30.72-30.72v-61.44zM304.274 535.771h-147.749c-17.554 0-30.72-13.166-30.72-30.72v-311.589c1.463-8.777 5.851-17.554 11.703-21.943s11.703-7.314 19.017-7.314h150.674c17.554 0 27.794 13.166 27.794 27.794v313.051c0 17.554-13.166 30.72-30.72 30.72zM304.274 194.926h-144.823v307.2h144.823v-307.2zM204.8 431.909h49.737c8.777 0 14.629 7.314 14.629 14.629 0 8.777-7.314 14.629-14.629 14.629h-49.737c-8.777 0-14.629-7.314-14.629-14.629 0-8.777 7.314-14.629 14.629-14.629zM204.8 369.006h49.737c8.777 0 14.629 7.314 14.629 14.629 0 8.777-7.314 14.629-14.629 14.629h-49.737c-8.777 0-14.629-7.314-14.629-14.629 0-8.777 7.314-14.629 14.629-14.629zM204.8 306.103h49.737c8.777 0 14.629 7.314 14.629 14.629 0 8.777-7.314 14.629-14.629 14.629h-49.737c-8.777 0-14.629-7.314-14.629-14.629 0-8.777 7.314-14.629 14.629-14.629zM204.8 243.2h49.737c8.777 0 14.629 7.314 14.629 14.629 0 8.777-7.314 14.629-14.629 14.629h-49.737c-8.777 0-14.629-7.314-14.629-14.629 0-8.777 7.314-14.629 14.629-14.629zM557.349 535.771h-149.211c-17.554 0-30.72-13.166-30.72-30.72v-311.589c1.463-10.24 5.851-17.554 11.703-23.406 5.851-4.389 11.703-7.314 19.017-7.314h152.137c17.554 0 27.794 13.166 27.794 27.794v313.051c0 19.017-14.629 32.183-30.72 32.183zM557.349 194.926h-144.823v307.2h144.823v-307.2zM457.874 431.909h49.737c8.777 0 14.629 7.314 14.629 14.629 0 8.777-7.314 14.629-14.629 14.629h-49.737c-8.777 0-14.629-7.314-14.629-14.629 0-8.777 7.314-14.629 14.629-14.629zM457.874 369.006h49.737c8.777 0 14.629 7.314 14.629 14.629 0 8.777-7.314 14.629-14.629 14.629h-49.737c-8.777 0-14.629-7.314-14.629-14.629 0-8.777 7.314-14.629 14.629-14.629zM457.874 306.103h49.737c8.777 0 14.629 7.314 14.629 14.629 0 8.777-7.314 14.629-14.629 14.629h-49.737c-8.777 0-14.629-7.314-14.629-14.629 0-8.777 7.314-14.629 14.629-14.629zM457.874 243.2h49.737c8.777 0 14.629 7.314 14.629 14.629 0 8.777-7.314 14.629-14.629 14.629h-49.737c-8.777 0-14.629-7.314-14.629-14.629 0-8.777 7.314-14.629 14.629-14.629zM808.96 535.771h-147.749c-17.554 0-30.72-13.166-30.72-30.72v-311.589c1.463-10.24 5.851-17.554 11.703-23.406 5.851-4.389 11.703-7.314 19.017-7.314h150.674c17.554 0 27.794 13.166 27.794 27.794v313.051c1.463 19.017-13.166 32.183-30.72 32.183zM808.96 194.926h-144.823v307.2h144.823c0 0 0-307.2 0-307.2zM710.949 431.909h49.737c8.777 0 14.629 7.314 14.629 14.629 0 8.777-7.314 14.629-14.629 14.629h-49.737c-8.777 0-14.629-7.314-14.629-14.629 0-8.777 5.851-14.629 14.629-14.629zM710.949 369.006h49.737c8.777 0 14.629 7.314 14.629 14.629 0 8.777-7.314 14.629-14.629 14.629h-49.737c-8.777 0-14.629-7.314-14.629-14.629 0-8.777 5.851-14.629 14.629-14.629zM710.949 306.103h49.737c8.777 0 14.629 7.314 14.629 14.629 0 8.777-7.314 14.629-14.629 14.629h-49.737c-8.777 0-14.629-7.314-14.629-14.629 0-8.777 5.851-14.629 14.629-14.629zM710.949 243.2h49.737c8.777 0 14.629 7.314 14.629 14.629 0 8.777-7.314 14.629-14.629 14.629h-49.737c-8.777 0-14.629-7.314-14.629-14.629 0-8.777 5.851-14.629 14.629-14.629zM807.497 771.291h-649.509c-19.017 0-35.109-16.091-35.109-35.109v-81.92c1.463-11.703 7.314-20.48 13.166-26.331s13.166-8.777 21.943-8.777h653.897c19.017 0 30.72 16.091 30.72 30.72v86.309c0 19.017-16.091 35.109-35.109 35.109zM807.497 654.263h-552.96v77.531h552.96c0 0 0-77.531 0-77.531z" />
<glyph unicode="&#xe90a;" glyph-name="caldera-forms" data-tags="caldera-forms" horiz-adv-x="965" d="M642.194 648.411h143.36c11.703 0 19.017 7.314 19.017 19.017s-7.314 19.017-19.017 19.017h-143.36c-10.24 0-16.091-5.851-19.017-14.629-1.463-1.463-1.463-4.389-1.463-7.314 1.463-8.777 8.777-16.091 20.48-16.091zM901.12 930.743h-835.291c-35.109 0-65.829-27.794-65.829-65.829v-835.291c0-35.109 30.72-64.366 65.829-64.366h835.291c35.109 0 65.829 30.72 65.829 65.829v833.829c0 38.034-27.794 65.829-65.829 65.829zM35.109 31.086v738.743h896.731v-738.743c0-16.091-16.091-30.72-30.72-30.72h-835.291c-16.091-1.463-30.72 16.091-30.72 30.72zM901.12 895.634c16.091 0 30.72-16.091 30.72-30.72v-61.44h-896.731v61.44c0 16.091 16.091 30.72 30.72 30.72h835.291zM762.149 478.72h-552.96c-19.017 0-35.109-16.091-35.109-35.109v-193.097c4.389-23.406 19.017-35.109 35.109-35.109h557.349c19.017 0 30.72 16.091 30.72 30.72v198.949c0 17.554-16.091 33.646-35.109 33.646zM212.114 440.686h548.571v-190.171h-548.571v190.171zM84.846 829.806h16.091c11.703 0 19.017 7.314 19.017 19.017 0 16.091-11.703 20.48-19.017 20.48h-16.091c-11.703 0-19.017-8.777-19.017-19.017 0-13.166 7.314-20.48 19.017-20.48zM162.377 831.269h16.091c11.703 0 19.017 7.314 19.017 19.017 0 10.24-7.314 19.017-19.017 19.017h-16.091c-11.703 0-19.017-7.314-19.017-19.017s7.314-19.017 19.017-19.017zM242.834 831.269h16.091c11.703 0 19.017 7.314 19.017 19.017 0 10.24-7.314 19.017-19.017 19.017h-16.091c-11.703 0-19.017-7.314-19.017-19.017s7.314-19.017 19.017-19.017zM179.931 654.263c2.926-2.926 8.777-4.389 13.166-4.389h124.343c11.703 0 19.017 7.314 19.017 19.017s-7.314 19.017-19.017 19.017h-124.343c-11.703 0-19.017-7.314-19.017-19.017 0-7.314 2.926-11.703 5.851-14.629zM406.674 648.411h143.36c11.703 0 19.017 7.314 19.017 19.017s-7.314 19.017-19.017 19.017h-143.36c-11.703 0-19.017-7.314-19.017-19.017-1.463-11.703 7.314-19.017 19.017-19.017zM757.76 130.56h-552.96c-11.703 0-19.017-7.314-19.017-19.017s7.314-19.017 19.017-19.017h552.96c11.703 0 19.017 7.314 19.017 19.017s-7.314 19.017-19.017 19.017zM788.48 582.583h-595.383c-11.703 0-19.017-7.314-19.017-19.017 0-5.851 1.463-8.777 4.389-13.166s10.24-7.314 16.091-7.314h592.457c2.926 0 4.389 1.463 7.314 2.926 8.777 1.463 13.166 8.777 13.166 17.554 0 11.703-7.314 19.017-19.017 19.017z" />
<glyph unicode="&#xe90b;" glyph-name="call-to-action" data-tags="call-to-action" horiz-adv-x="965" d="M656.823 333.897h197.486v160.914h-197.486v-160.914zM694.857 456.777h117.029v-81.92h-117.029v81.92zM102.4 494.811v-162.377h509.074v162.377h-509.074zM570.514 374.857h-425.691v81.92h425.691v-81.92zM945.006 930.743h-924.526c-11.703 0-20.48-8.777-20.48-20.48v-924.526c0-11.703 8.777-20.48 20.48-20.48h924.526c11.703 0 20.48 8.777 20.48 20.48v924.526c0 11.703-8.777 20.48-20.48 20.48zM40.96 804.937v84.846h882.103v-84.846h-882.103zM40.96 6.217v756.297h882.103v-756.297h-882.103zM64.366 866.377h40.96v-40.96h-40.96v40.96zM125.806 866.377h40.96v-40.96h-40.96v40.96zM191.634 866.377h40.96v-40.96h-40.96v40.96z" />
<glyph unicode="&#xe90c;" glyph-name="contact-form-7" data-tags="contact-form-7" horiz-adv-x="965" d="M463.726 638.171c0 0 0 0 0 0 2.926-4.389 7.314-5.851 11.703-5.851h253.074c11.703 0 19.017 7.314 19.017 19.017s-7.314 19.017-19.017 19.017h-253.074c-11.703 0-19.017-7.314-19.017-19.017 1.463-4.389 2.926-8.777 5.851-11.703 0 0 1.463-1.463 1.463-1.463zM899.657 930.743h-833.829c-39.497 0-65.829-30.72-65.829-65.829v-835.291c0-38.034 30.72-64.366 65.829-64.366h835.291c38.034 0 65.829 30.72 65.829 65.829v833.829c-1.463 39.497-32.183 65.829-67.291 65.829zM901.12 895.634c14.629 0 30.72-14.629 30.72-30.72v-59.977h-896.731v59.977c0 14.629 14.629 30.72 30.72 30.72h835.291zM65.829 0.366c-14.629 0-30.72 14.629-30.72 30.72v738.743h895.269v-738.743c0-14.629-14.629-30.72-30.72-30.72h-833.829zM709.486 456.777h-555.886c-19.017 0-35.109-14.629-35.109-35.109v-191.634c0-19.017 16.091-35.109 35.109-35.109h555.886c19.017 0 35.109 14.629 35.109 35.109v191.634c0 19.017-14.629 35.109-35.109 35.109zM709.486 421.669v-187.246h-551.497v187.246h551.497zM81.92 831.269h14.629c11.703 0 19.017 7.314 19.017 19.017s-8.777 19.017-19.017 19.017h-14.629c-11.703 0-19.017-7.314-19.017-19.017s7.314-19.017 19.017-19.017zM162.377 831.269h14.629c11.703 0 19.017 7.314 19.017 19.017s-8.777 19.017-19.017 19.017h-14.629c-11.703 0-19.017-7.314-19.017-19.017s7.314-19.017 19.017-19.017zM242.834 831.269h14.629c11.703 0 19.017 7.314 19.017 19.017s-8.777 19.017-19.017 19.017h-14.629c-11.703 0-19.017-7.314-19.017-19.017s7.314-19.017 19.017-19.017zM137.509 632.32h253.074c11.703 0 19.017 7.314 19.017 19.017s-7.314 19.017-19.017 19.017h-253.074c-11.703 0-19.017-7.314-19.017-19.017s11.703-19.017 19.017-19.017zM321.829 114.469h-175.543c-11.703 0-19.017-7.314-19.017-19.017s7.314-19.017 19.017-19.017h175.543c11.703 0 19.017 7.314 19.017 19.017s-7.314 19.017-19.017 19.017zM731.429 562.103h-593.92c-11.703 0-19.017-7.314-19.017-19.017 0-10.24 11.703-19.017 19.017-19.017h593.92c11.703 0 19.017 7.314 19.017 19.017s-7.314 19.017-19.017 19.017z" />
<glyph unicode="&#xe90d;" glyph-name="content-ticker" data-tags="content-ticker" horiz-adv-x="965" d="M466.651 458.24c0 2.926-5.851 5.851-10.24 5.851h-78.994c-2.926 0-5.851-2.926-10.24-5.851l-71.68-226.743c-1.463-7.314-1.463-8.777 0-10.24s2.926-2.926 5.851-2.926h62.903c2.926 0 8.777 0 10.24 5.851l13.166 42.423h62.903l10.24-42.423c0-2.926 5.851-5.851 10.24-5.851h62.903c2.926 0 5.851 0 5.851 2.926 2.926 2.926 2.926 5.851 0 10.24l-73.143 226.743zM476.891 238.811l-10.24 42.423c0 2.926-5.851 5.851-10.24 5.851h-76.069c-2.926 0-7.314 1.463-10.24-5.851l-13.166-42.423h-39.497l67.291 206.263h65.829l68.754-206.263h-42.423zM36.571 192v639.269c0 16.091 13.166 29.257 29.257 29.257h706.56c16.091 0 29.257-13.166 29.257-29.257v-32.183h36.571v32.183c0 36.571-29.257 65.829-65.829 65.829h-706.56c-36.571 0-65.829-29.257-65.829-65.829v-640.731c0-35.109 29.257-64.366 65.829-64.366h32.183v36.571h-32.183c-16.091 0-29.257 11.703-29.257 29.257zM899.657 768.366h-706.56c-36.571 0-65.829-29.257-65.829-65.829v-639.269c0-36.571 29.257-65.829 65.829-65.829h706.56c36.571 0 65.829 29.257 65.829 65.829v640.731c0 35.109-29.257 64.366-65.829 64.366zM928.914 63.269c0-16.091-13.166-29.257-29.257-29.257h-706.56c-16.091 0-29.257 13.166-29.257 29.257v640.731c0 16.091 13.166 29.257 29.257 29.257h706.56c16.091 0 29.257-13.166 29.257-29.257v-640.731zM193.097 706.926h36.571v-36.571h-36.571v36.571zM256 706.926h36.571v-36.571h-36.571v36.571zM321.829 706.926h36.571v-36.571h-36.571v36.571zM193.097 641.097h709.486v-36.571h-709.486v36.571zM571.977 469.943h226.743v-23.406h-226.743v23.406zM571.977 404.114h226.743v-23.406h-226.743v23.406zM443.246 309.029h-51.2c-4.389 0-7.314 1.463-10.24 5.851-2.926 2.926-2.926 7.314-1.463 11.703v0l29.257 77.531c1.463 4.389 5.851 8.777 11.703 8.777s10.24-4.389 11.703-8.777l23.406-78.994c1.463-4.389 0-7.314-1.463-10.24-4.389-2.926-7.314-5.851-11.703-5.851zM397.897 325.12h40.96l-19.017 62.903-21.943-62.903zM416.914 399.726c0 0 0 0 0 0v0zM424.229 399.726v0c0 0 0 0 0 0z" />
<glyph unicode="&#xe90e;" glyph-name="content-timeline" data-tags="content-timeline" horiz-adv-x="965" d="M947.931 821.029h-282.331c0 0 0 0-2.926 0-10.24 0-14.629-7.314-14.629-17.554v-169.691c0 0 0 0 0-2.926 0-10.24 7.314-14.629 17.554-14.629h282.331c0 0 0 0 2.926 0 10.24 0 14.629 7.314 14.629 17.554v169.691c0 0 0 0 0 2.926 0 10.24-7.314 14.629-17.554 14.629zM933.303 652.8h-250.149v136.046h250.149c0 0 0-136.046 0-136.046zM947.931 281.234h-282.331c0 0 0 0-2.926 0-10.24 0-14.629-7.314-14.629-17.554v-169.691c0 0 0 0 0-2.926 0-10.24 7.314-14.629 17.554-14.629h282.331c0 0 0 0 2.926 0 10.24 0 14.629 7.314 14.629 17.554v169.691c0 0 0 0 0 2.926 0 7.314-7.314 14.629-17.554 14.629zM933.303 110.080h-250.149v136.046h250.149c0 0 0-136.046 0-136.046zM576.366 744.96c-10.24 40.96-48.274 65.829-87.771 55.589-32.183-7.314-58.514-38.034-58.514-70.217 0-35.109 23.406-62.903 55.589-73.143v-136.046c-40.96-7.314-65.829-48.274-55.589-87.771 4.389-27.794 27.794-49.737 55.589-55.589v-136.046c-32.183-7.314-55.589-38.034-55.589-73.143 0-40.96 32.183-73.143 73.143-73.143s73.143 32.183 73.143 73.143c0 35.109-23.406 62.903-58.514 70.217v136.046c32.183 7.314 58.514 38.034 55.589 73.143 0 35.109-23.406 65.829-55.589 73.143v136.046c43.886 10.24 68.754 51.2 58.514 87.771zM547.109 168.594c0-23.406-17.554-40.96-40.96-40.96s-40.96 17.554-40.96 40.96 17.554 40.96 40.96 40.96c20.48-1.463 38.034-19.017 40.96-40.96zM544.183 450.926c0-23.406-17.554-40.96-40.96-40.96v0c-23.406 0-38.034 17.554-38.034 40.96s17.554 40.96 38.034 40.96c23.406-2.926 40.96-21.943 40.96-40.96zM503.223 690.834c-23.406 0-38.034 17.554-38.034 40.96s17.554 40.96 38.034 40.96c23.406 0 40.96-17.554 40.96-40.96s-17.554-40.96-40.96-40.96zM741.669 702.537h98.011c10.24 0 17.554 7.314 17.554 17.554s-7.314 17.554-17.554 17.554h-98.011c-10.24 0-17.554-7.314-17.554-17.554s7.314-17.554 17.554-17.554zM334.994 551.863c0 0-2.926 0 0 0h-315.977c-10.24 0-17.554-7.314-17.554-14.629 0 0 0 0 0-2.926v-169.691c0-10.24 7.314-17.554 14.629-17.554 0 0 0 0 2.926 0h315.977c10.24 0 17.554 7.314 17.554 14.629 0 0 0 0 0 2.926v169.691c-2.926 8.777-10.24 17.554-17.554 17.554zM314.514 382.171h-279.406v136.046h279.406v-136.046zM133.12 433.371h98.011c10.24 0 17.554 7.314 17.554 17.554s-7.314 17.554-17.554 17.554h-98.011c-10.24 0-17.554-7.314-17.554-17.554 2.926-10.24 10.24-17.554 17.554-17.554zM741.669 162.743h98.011c10.24 0 17.554 7.314 17.554 17.554s-10.24 14.629-17.554 14.629h-98.011c-10.24 0-17.554-7.314-17.554-17.554-1.463-8.777 7.314-14.629 17.554-14.629z" />
<glyph unicode="&#xe90f;" glyph-name="content-toggle" data-tags="content-toggle" horiz-adv-x="965" d="M386.194 605.989h-320.366c-30.72 0-54.126-23.406-54.126-54.126v-563.2c0-29.257 23.406-52.663 54.126-52.663h320.366c30.72 0 54.126 23.406 54.126 54.126v558.811c-1.463 33.646-24.869 57.051-54.126 57.051zM399.36-9.874c0-7.314-7.314-13.166-13.166-13.166h-320.366c-7.314 0-13.166 7.314-13.166 13.166v558.811c0 7.314 7.314 13.166 13.166 13.166h320.366c7.314 0 13.166-7.314 13.166-13.166v-558.811zM898.194 605.989h-320.366c-30.72 0-54.126-23.406-54.126-54.126v-563.2c0-30.72 23.406-54.126 54.126-54.126h320.366c30.72 0 54.126 23.406 54.126 54.126v560.274c2.926 33.646-24.869 57.051-54.126 57.051zM911.36-9.874c0-7.314-7.314-13.166-13.166-13.166h-320.366c-7.314 0-13.166 7.314-13.166 13.166v558.811c0 7.314 7.314 13.166 13.166 13.166h320.366c7.314 0 13.166-7.314 13.166-13.166v-558.811zM361.326 740.571h276.48c30.72 0 57.051 23.406 57.051 57.051v105.326c0 30.72-23.406 57.051-57.051 57.051h-276.48c-29.257 0-57.051-23.406-57.051-57.051v-103.863c0-35.109 23.406-58.514 57.051-58.514zM345.234 900.023c0 7.314 7.314 13.166 13.166 13.166h276.48c7.314 0 13.166-7.314 13.166-13.166v-103.863c0-7.314-7.314-13.166-13.166-13.166h-276.48c-7.314 0-13.166 7.314-13.166 13.166 0-1.463 0 103.863 0 103.863zM536.869 807.863v0h80.457v81.92h-80.457v-61.44zM826.514 445.074h-178.469v-40.96h178.469zM826.514 347.063h-178.469v-40.96h178.469zM826.514 249.051h-178.469v-39.497h178.469zM311.589 445.074v0h-178.469v-40.96h181.394v40.96zM311.589 347.063v0h-178.469v-40.96h181.394v40.96zM311.589 249.051v0h-178.469v-39.497h181.394v39.497z" />
<glyph unicode="&#xe910;" glyph-name="countdown" data-tags="countdown" horiz-adv-x="965" d="M10.24 857.6h32.183v-32.183h-32.183v32.183zM76.069 857.6h32.183v-32.183h-32.183v32.183zM138.971 857.6h32.183v-32.183h-32.183v32.183zM580.754 165.669h-215.040c-10.24 0-17.554 7.314-17.554 17.554v542.72c0 10.24 7.314 17.554 17.554 17.554h215.040c10.24 0 17.554-7.314 17.554-17.554v-545.646c-1.463-7.314-8.777-14.629-17.554-14.629v0zM383.269 196.389h182.857v512h-182.857c0 0 0-512 0-512zM947.931 165.669h-213.577c-10.24 0-17.554 7.314-17.554 17.554v542.72c0 10.24 7.314 17.554 17.554 17.554h215.040c8.777 0 16.091-7.314 16.091-17.554v-545.646c-2.926-7.314-10.24-14.629-17.554-14.629v0zM748.983 196.389h182.857v512h-182.857v-512zM215.040 165.669h-197.486c-10.24 0-17.554 7.314-17.554 17.554v542.72c0 10.24 7.314 17.554 17.554 17.554h197.486c10.24 0 17.554-7.314 17.554-17.554v-545.646c-1.463-7.314-8.777-14.629-17.554-14.629v0zM33.646 196.389h165.303v512h-165.303c0 0 0-512 0-512zM33.646 89.6h146.286v-32.183h-146.286v32.183zM399.36 89.6h146.286v-32.183h-146.286v32.183zM765.074 89.6h146.286v-32.183h-146.286v32.183zM99.474 467.017h32.183v-114.103h-32.183v114.103zM457.874 562.103h32.183v-209.189h-32.183v209.189zM816.274 562.103h32.183v-131.657h-32.183v131.657z" />
<glyph unicode="&#xe911;" glyph-name="counter" data-tags="counter" horiz-adv-x="965" d="M10.24 848.823h32.183v-32.183h-32.183v32.183zM76.069 848.823h32.183v-32.183h-32.183v32.183zM138.971 848.823h32.183v-32.183h-32.183v32.183zM580.754 734.72h-215.040c-10.24 0-17.554-7.314-17.554-17.554v-544.183c0-10.24 7.314-17.554 17.554-17.554h215.040c10.24 0 17.554 7.314 17.554 14.629v547.109c-1.463 10.24-8.777 17.554-17.554 17.554zM566.126 187.611h-182.857v512h182.857v-512zM947.931 734.72h-213.577c-10.24 0-17.554-7.314-17.554-17.554v-544.183c0-10.24 7.314-17.554 17.554-17.554h215.040c7.314 0 14.629 7.314 17.554 14.629v547.109c-1.463 10.24-8.777 17.554-19.017 17.554zM931.84 187.611h-182.857v512h182.857v-512zM215.040 734.72h-197.486c-10.24 0-17.554-7.314-17.554-17.554v-544.183c0-10.24 7.314-17.554 17.554-17.554h197.486c10.24 0 17.554 7.314 17.554 14.629v547.109c-1.463 10.24-8.777 17.554-17.554 17.554zM200.411 187.611h-166.766v512h165.303l1.463-512zM33.646 79.36h146.286v-32.183h-146.286v32.183zM399.36 79.36h146.286v-32.183h-146.286v32.183zM765.074 79.36h146.286v-32.183h-146.286v32.183zM99.474 458.24h32.183v-114.103h-32.183v114.103zM457.874 551.863h32.183v-209.189h-32.183v209.189zM811.886 347.063h32.183l36.571 179.931v14.629h-83.383v-26.331h51.2z" />
<glyph unicode="&#xe912;" glyph-name="creative-button" data-tags="creative-button" horiz-adv-x="965" d="M877.714 782.994h-514.926c-49.737 0-90.697-39.497-90.697-90.697v-77.531h-181.394c-49.737 0-90.697-39.497-90.697-90.697v-318.903c0-49.737 39.497-90.697 90.697-90.697h323.291l248.686 2.926c49.737 0 90.697 39.497 90.697 90.697v4.389l2.926 74.606 103.863-2.926h16.091c49.737 0 90.697 39.497 90.697 90.697v317.44c-1.463 51.2-38.034 90.697-89.234 90.697zM724.114 251.977v-39.497c0-35.109-26.331-58.514-58.514-58.514l-573.44-2.926c-35.109 0-58.514 26.331-58.514 58.514v318.903c0 35.109 26.331 58.514 58.514 58.514h196.023l378.88 2.926c35.109 0 58.514-26.331 58.514-58.514l-1.463-279.406zM936.229 374.857v0c0-35.109-26.331-58.514-58.514-58.514h-32.183c-7.314 0-90.697 0-90.697 0v212.114c0 49.737-39.497 90.697-90.697 90.697h-361.326v76.069c0 35.109 26.331 58.514 58.514 58.514l514.926-2.926c35.109 0 58.514-26.331 58.514-58.514l1.463-317.44zM560.274 377.783h-361.326c-7.314 0-13.166-5.851-13.166-16.091 0-7.314 5.851-16.091 13.166-16.091h361.326c7.314 0 13.166 5.851 13.166 16.091 1.463 7.314-5.851 16.091-13.166 16.091z" />
<glyph unicode="&#xe913;" glyph-name="data-table" data-tags="data-table" horiz-adv-x="965" d="M949.394 882.469h-933.303c-10.24 0-16.091-5.851-16.091-16.091v-838.217c0-10.24 5.851-16.091 16.091-16.091h933.303c10.24 0 16.091 5.851 16.091 16.091v838.217c2.926 10.24-7.314 16.091-16.091 16.091zM933.303 654.263v-605.623h-232.594v605.623h232.594zM32.183 689.371v162.377h100.937v-162.377c0 0-100.937 0-100.937 0zM168.229 689.371v162.377h231.131v-162.377c0 0-231.131 0-231.131 0zM399.36 654.263v-610.011h-231.131v610.011h231.131zM434.469 689.371v162.377h231.131v-162.377c0 0-231.131 0-231.131 0zM667.063 625.006v-580.754h-232.594v610.011h231.131l1.463-29.257zM700.709 689.371v162.377h231.131v-162.377c0 0-231.131 0-231.131 0zM32.183 48.64v605.623h100.937v-605.623h-100.937z" />
<glyph unicode="&#xe914;" glyph-name="divider" data-tags="divider" horiz-adv-x="965" d="M201.874 316.343v-171.154h-30.72c-19.017 0-33.646-8.777-39.497-19.017-5.851-14.629-2.926-29.257 8.777-42.423l106.789-128.731c11.703-14.629 24.869-19.017 42.423-19.017s30.72 8.777 42.423 19.017l106.789 128.731c11.703 14.629 14.629 30.72 8.777 42.423-5.851 14.629-19.017 19.017-39.497 19.017h-33.646v171.154c0 21.943-16.091 39.497-39.497 39.497h-92.16c-24.869 0-40.96-17.554-40.96-39.497v0zM168.229 108.617h52.663c11.703 0 19.017 8.777 19.017 19.017v190.171h92.16v-190.171c0-11.703 8.777-19.017 19.017-19.017h52.663l-103.863-128.731c-2.926-2.926-8.777-5.851-11.703-5.851s-8.777 2.926-11.703 5.851l-108.251 128.731zM416.914 747.886h30.72v-162.377c0-21.943 16.091-39.497 39.497-39.497h92.16c21.943 0 39.497 16.091 39.497 39.497v162.377h30.72c19.017 0 33.646 8.777 39.497 19.017 5.851 14.629 2.926 27.794-8.777 45.349l-106.789 128.731c-11.703 14.629-24.869 19.017-42.423 19.017-16.091 0-30.72-8.777-42.423-19.017l-106.789-128.731c-11.703-14.629-14.629-30.72-8.777-45.349 10.24-11.703 24.869-19.017 43.886-19.017v0zM413.989 785.92l106.789 128.731c2.926 2.926 8.777 5.851 11.703 5.851s8.777-2.926 11.703-5.851l106.789-128.731h-52.663c-11.703 0-19.017-8.777-19.017-19.017v-181.394h-92.16v181.394c0 11.703-8.777 19.017-19.017 19.017h-54.126zM826.514 316.343h-292.571c-8.777 0-16.091 8.777-16.091 16.091v5.851c0 8.777 8.777 16.091 16.091 16.091h288.183c8.777 0 16.091-8.777 16.091-16.091v-5.851c4.389-8.777-4.389-16.091-11.703-16.091zM674.377 439.223h-532.48c-7.314 0-16.091 8.777-16.091 16.091v5.851c0 8.777 8.777 16.091 16.091 16.091h532.48c8.777 0 16.091-8.777 16.091-16.091v-5.851c1.463-10.24-4.389-16.091-16.091-16.091z" />
<glyph unicode="&#xe915;" glyph-name="dual-color-heading" data-tags="dual-color-heading" horiz-adv-x="965" d="M425.691 45.714h-201.874c-2.926 0-5.851 2.926-5.851 5.851v73.143c0 2.926 2.926 5.851 5.851 5.851h184.32c11.703 0 20.48 8.777 20.48 20.48v649.509c0 11.703-8.777 20.48-20.48 20.48h-260.389c-11.703 0-20.48-8.777-20.48-20.48v-54.126c0-2.926-2.926-5.851-5.851-5.851h-73.143c-2.926 0-2.926 2.926-5.851 2.926 0 0-2.926 2.926-2.926 5.851v165.303c0-2.926 2.926 2.926 8.777 2.926h545.646c11.703 0 20.48 8.777 20.48 20.48s-8.777 20.48-20.48 20.48h-545.646c-27.794 1.463-48.274-23.406-48.274-46.811v-165.303c0-14.629 5.851-27.794 14.629-36.571s23.406-14.629 36.571-14.629h71.68c27.794 0 48.274 24.869 48.274 48.274v33.646h213.577v-604.16h-160.914c-27.794 0-48.274-23.406-48.274-48.274v-73.143c0-27.794 23.406-48.274 48.274-48.274h201.874c11.703 0 20.48 8.777 20.48 20.48 0 13.166-8.777 21.943-20.48 21.943zM721.189 172.983h-162.377v602.697h213.577v-33.646c0-27.794 23.406-48.274 48.274-48.274h71.68c27.794 0 48.274 24.869 48.274 48.274v166.766c0 27.794-24.869 48.274-48.274 48.274h-207.726c-11.703 0-20.48-8.777-20.48-20.48s8.777-20.48 20.48-20.48h207.726c2.926 0 5.851-2.926 5.851-5.851v-165.303c0-2.926-2.926-5.851-5.851-5.851h-71.68c-2.926 0-5.851 2.926-5.851 5.851v54.126c0 11.703-8.777 20.48-20.48 20.48h-257.463c-11.703 0-20.48-8.777-20.48-20.48v-645.12c0-11.703 8.777-20.48 20.48-20.48h184.32c2.926 0 5.851-2.926 5.851-5.851v-73.143c0-2.926-2.926-5.851-5.851-5.851h-204.8c-11.703 0-20.48-8.777-20.48-20.48s8.777-20.48 20.48-20.48h201.874c27.794 0 48.274 23.406 48.274 48.274v73.143c2.926 19.017-19.017 43.886-45.349 43.886zM747.52 377.783h14.629c11.703 0 20.48 8.777 20.48 20.48s-8.777 20.48-20.48 20.48h-14.629c-11.703 0-20.48-8.777-20.48-20.48s8.777-20.48 20.48-20.48zM803.109 398.263c0-11.703 8.777-20.48 20.48-20.48h121.417c11.703 0 20.48 8.777 20.48 20.48s-8.777 20.48-20.48 20.48h-121.417c-11.703 1.463-20.48-7.314-20.48-20.48zM747.52 304.64h193.097c11.703 0 20.48 8.777 20.48 20.48s-8.777 20.48-20.48 20.48h-193.097c-11.703 0-20.48-8.777-20.48-20.48 0-10.24 8.777-20.48 20.48-20.48zM945.006 278.309h-197.486c-11.703 0-20.48-8.777-20.48-20.48s8.777-20.48 20.48-20.48h193.097c14.629-2.926 23.406 8.777 23.406 20.48 1.463 11.703-7.314 20.48-19.017 20.48z" />
<glyph unicode="&#xe916;" glyph-name="duplicator" data-tags="duplicator" horiz-adv-x="965" d="M422.766 578.194h355.474v-38.034h-355.474v38.034zM422.766 461.166h222.354v-38.034h-222.354v38.034zM393.509-28.891c-76.069 0-131.657 55.589-131.657 131.657v77.531h-130.194c-77.531 0-133.12 55.589-133.12 133.12l1.463 134.583c0 108.251 0 216.503 0 324.754v14.629c0 21.943 0 45.349 2.926 67.291 7.314 58.514 61.44 105.326 119.954 105.326h209.189c55.589 0 109.714 0 165.303 0 24.869 0 48.274-7.314 68.754-21.943 36.571-26.331 55.589-59.977 55.589-103.863 0-11.703 0-21.943 0-33.646v-49.737c0 0 178.469 0 212.114 0 76.069 0 130.194-55.589 130.194-131.657 0-144.823 0-291.109 0-435.931v-78.994c0-77.531-55.589-133.12-133.12-133.12v0h-437.394zM394.971 704c-52.663 0-87.771-33.646-87.771-86.309v-14.629c0-348.16 0-503.223 2.926-519.314 5.851-39.497 39.497-65.829 81.92-65.829h440.32c51.2 0 84.846 35.109 84.846 84.846 0 172.617 0 345.234 0 516.389 0 51.2-33.646 84.846-84.846 84.846-29.257 0-296.96 0-299.886 0v0h-137.509zM133.12 914.651c-52.663 0-86.309-33.646-86.309-86.309v-514.926c0-52.663 33.646-86.309 84.846-86.309h98.011l7.314 1.463 20.48 5.851 4.389 20.48v124.343c0 80.457 0 160.914 0 241.371 0 76.069 55.589 130.194 131.657 130.194h185.783l-1.463 30.72c0 5.851 0 11.703 0 17.554 0 19.017-1.463 36.571-4.389 54.126-7.314 36.571-39.497 59.977-81.92 59.977h-311.589l-46.811 1.463z" />
<glyph unicode="&#xe917;" glyph-name="dynamic-gallery" data-tags="dynamic-gallery" horiz-adv-x="965" d="M68.754 861.989h38.034v-38.034h-38.034v38.034zM133.12 861.989h38.034v-38.034h-38.034v38.034zM196.023 861.989h38.034v-38.034h-38.034v38.034zM943.543 930.743h-924.526c-10.24 0-19.017-8.777-19.017-19.017v-927.451c0-8.777 8.777-19.017 19.017-19.017h927.451c8.777 0 19.017 8.777 19.017 19.017v924.526c0 8.777-10.24 21.943-21.943 21.943zM927.451 0.366v0h-889.417v759.223h890.88c-1.463 0-1.463-759.223-1.463-759.223zM927.451 800.549v0h-889.417v89.234h890.88c-1.463 0-1.463-89.234-1.463-89.234zM399.36 366.080h162.377c8.777 0 19.017 8.777 19.017 19.017v174.080c0 8.777-8.777 19.017-19.017 19.017h-162.377c-8.777 0-19.017-8.777-19.017-19.017v-174.080c1.463-13.166 10.24-19.017 19.017-19.017zM418.377 537.234h124.343v-137.509h-124.343v137.509zM646.583 567.954c-2.926-2.926-5.851-5.851-5.851-13.166v-174.080c0-8.777 5.851-19.017 19.017-19.017h162.377c8.777 0 19.017 8.777 19.017 19.017v175.543c0 8.777-8.777 19.017-19.017 19.017h-163.84c-5.851-1.463-8.777-1.463-11.703-7.314zM677.303 537.234h121.417v-137.509h-121.417v137.509zM146.286 366.080h160.914c8.777 0 19.017 8.777 19.017 19.017v174.080c0 8.777-8.777 19.017-19.017 19.017h-160.914c-5.851 0-8.777-2.926-13.166-5.851s-5.851-5.851-5.851-13.166v-174.080c0-13.166 5.851-19.017 19.017-19.017zM165.303 537.234h121.417v-137.509h-121.417v137.509zM399.36 89.6h162.377c8.777 0 19.017 8.777 19.017 19.017v172.617c0 8.777-8.777 19.017-19.017 19.017h-162.377c-8.777 0-19.017-8.777-19.017-19.017v-174.080c1.463-7.314 10.24-17.554 19.017-17.554zM418.377 263.68h124.343v-137.509h-124.343v137.509zM819.2 300.251h-160.914c-5.851 0-8.777-2.926-13.166-5.851-2.926-2.926-5.851-5.851-5.851-13.166v-174.080c0-8.777 5.851-19.017 19.017-19.017h160.914c8.777 0 19.017 8.777 19.017 19.017v174.080c-1.463 10.24-10.24 19.017-19.017 19.017zM797.257 127.634h-121.417v137.509h121.417v-137.509zM146.286 89.6h160.914c8.777 0 19.017 8.777 19.017 19.017v172.617c0 8.777-8.777 19.017-19.017 19.017h-160.914c-5.851 0-8.777-2.926-13.166-5.851-2.926-2.926-5.851-5.851-5.851-13.166v-174.080c0-7.314 5.851-17.554 19.017-17.554zM165.303 263.68h121.417v-137.509h-121.417v137.509zM304.274 642.56h49.737c8.777 0 19.017 8.777 19.017 19.017s-8.777 19.017-19.017 19.017h-49.737c-8.777 0-19.017-8.777-19.017-19.017s8.777-19.017 19.017-19.017zM459.337 642.56h49.737c8.777 0 19.017 8.777 19.017 19.017s-8.777 19.017-19.017 19.017h-49.737c-8.777 0-19.017-8.777-19.017-19.017s5.851-19.017 19.017-19.017zM611.474 642.56h49.737c8.777 0 19.017 8.777 19.017 19.017s-8.777 19.017-19.017 19.017h-49.737c-8.777 0-19.017-8.777-19.017-19.017s10.24-19.017 19.017-19.017z" />
<glyph unicode="&#xe918;" glyph-name="embedpress" data-tags="embedpress" d="M2.048 960v-196.608h55.296v139.264h141.312v57.344zM968.704 132.608v-139.264h-141.312v-57.344h198.656v196.608zM972.8 691.712c-36.864 65.536-102.4 108.544-176.128 116.736-8.192 0-18.432 2.048-26.624 2.048-34.816 0-69.632-8.192-100.352-22.528-4.096-2.048-8.192-4.096-14.336-6.144-53.248-28.672-92.16-77.824-108.544-133.12v0l-139.264-397.312c-14.336-40.96-38.912-73.728-73.728-92.16-2.048 0-4.096-2.048-4.096-2.048l-4.096-2.048c-20.48-10.24-43.008-14.336-67.584-14.336-6.144 0-12.288 0-18.432 2.048-49.152 6.144-94.208 34.816-118.784 79.872-20.48 36.864-24.576 77.824-14.336 118.784 12.288 40.96 38.912 73.728 75.776 94.208 4.096 2.048 6.144 4.096 8.192 4.096 20.48 10.24 43.008 14.336 67.584 14.336 10.24 0 45.056-4.096 45.056-4.096l-32.768-98.304 55.296-18.432 59.392 167.936-63.488 18.432-10.24 2.048c-10.24 2.048-18.432 4.096-26.624 4.096s-18.432 2.048-26.624 2.048c-34.816 0-69.632-8.192-100.352-22.528-4.096-2.048-8.192-4.096-14.336-6.144-55.296-30.72-94.208-79.872-110.592-139.264s-10.24-122.88 20.48-176.128c36.864-65.536 102.4-108.544 176.128-116.736 8.192 0 18.432-2.048 26.624-2.048 34.816 0 69.632 8.192 100.352 22.528 4.096 2.048 8.192 4.096 14.336 6.144 53.248 28.672 92.16 77.824 108.544 133.12v0l139.264 393.216 2.048 4.096c16.384 45.056 40.96 71.68 73.728 90.112 2.048 0 4.096 2.048 4.096 2.048l4.096 2.048c20.48 10.24 43.008 14.336 67.584 14.336 6.144 0 12.288 0 18.432-2.048 49.152-6.144 94.208-34.816 118.784-79.872 20.48-36.864 24.576-77.824 14.336-118.784-12.288-40.96-38.912-73.728-73.728-94.208-2.048 0-10.24-4.096-10.24-4.096-20.48-10.24-43.008-14.336-67.584-14.336-6.144 0-12.288 0-18.432 2.048-8.192 0-18.432 2.048-26.624 6.144h-2.048l-30.72 8.192-28.672-69.632 40.96-12.288c12.288-4.096 24.576-6.144 36.864-6.144 8.192 0 18.432-2.048 26.624-2.048 34.816 0 69.632 8.192 100.352 22.528l4.096 2.048c4.096 2.048 6.144 4.096 10.24 4.096 110.592 63.488 151.552 206.848 90.112 317.44z" />
<glyph unicode="&#xe919;" glyph-name="event-calendar" data-tags="event-calendar" horiz-adv-x="1165" d="M1085.793 960h-1004.579c-45.903 0-81.214-38.841-81.214-81.214v-861.572c0-45.903 38.841-81.214 81.214-81.214h1001.048c45.903 0 81.214 38.841 81.214 81.214v861.572c5.297 45.903-33.545 81.214-77.683 81.214zM1119.338 15.448c0-21.186-17.655-35.31-35.31-35.31h-1002.814c-21.186 0-35.31 17.655-35.31 35.31v863.338c0 21.186 17.655 35.31 35.31 35.31h1001.048c21.186 0 35.31-17.655 35.31-35.31v-863.338h1.766zM695.614 184.938c-8.828 0-19.421 5.297-19.421 19.421v270.124c0 12.359 8.828 19.421 19.421 19.421h261.297c8.828 0 19.421-1.766 19.421-17.655v-271.89c0-12.359-8.828-19.421-19.421-19.421 0 0-261.297 0-261.297 0zM720.331 230.841h213.628v218.924h-213.628v-218.924zM284.248 693.407c0 24.717-19.421 44.138-44.138 44.138s-44.138-19.421-44.138-44.138v0c0-24.717 19.421-44.138 44.138-44.138s44.138 19.421 44.138 44.138v0zM752.11 693.407v0c0 24.717-19.421 44.138-44.138 44.138s-44.138-19.421-44.138-44.138v0c0-24.717 19.421-44.138 44.138-44.138s44.138 19.421 44.138 44.138zM985.159 693.407c0 24.717-19.421 44.138-44.138 44.138s-44.138-19.421-44.138-44.138v0c0-24.717 19.421-44.138 44.138-44.138s44.138 19.421 44.138 44.138v0zM519.062 693.407c0 24.717-19.421 44.138-44.138 44.138s-44.138-19.421-44.138-44.138v0c0-24.717 19.421-44.138 44.138-44.138s44.138 19.421 44.138 44.138v0zM284.248 456.828c0 24.717-19.421 44.138-44.138 44.138s-44.138-19.421-44.138-44.138v0c0-24.717 19.421-44.138 44.138-44.138s44.138 19.421 44.138 44.138v0zM519.062 456.828c0 24.717-19.421 44.138-44.138 44.138s-44.138-19.421-44.138-44.138v0c0-24.717 19.421-44.138 44.138-44.138s44.138 19.421 44.138 44.138v0zM284.248 220.248c0 24.717-19.421 44.138-44.138 44.138s-44.138-19.421-44.138-44.138v0c0-24.717 19.421-44.138 44.138-44.138s44.138 19.421 44.138 44.138v0zM519.062 220.248c0 24.717-19.421 44.138-44.138 44.138s-44.138-19.421-44.138-44.138v0c0-24.717 19.421-44.138 44.138-44.138s44.138 19.421 44.138 44.138v0z" />
<glyph unicode="&#xe91a;" glyph-name="facebook-feed-carousel" data-tags="facebook-feed-carousel" horiz-adv-x="965" d="M959.634 475.794l-68.754 57.051c-5.851 5.851-16.091 4.389-21.943-1.463s-4.389-16.091 1.463-21.943l52.663-45.349-52.663-45.349c-5.851-5.851-7.314-14.629-1.463-21.943 2.926-4.389 7.314-5.851 11.703-5.851 2.926 0 7.314 1.463 10.24 4.389l68.754 57.051c2.926 2.926 5.851 7.314 5.851 11.703s-1.463 8.777-5.851 11.703zM162.377 404.114v147.749h-30.72v43.886h30.72v43.886c0 16.091 4.389 30.72 14.629 39.497 10.24 10.24 26.331 16.091 46.811 16.091h43.886v-46.811h-30.72c-8.777 0-16.091-8.777-16.091-14.629v-36.571h46.811c-1.463-20.48-4.389-38.034-4.389-45.349h-40.96v-147.749h-59.977zM42.423 54.491c-23.406 0-42.423 19.017-42.423 42.423v702.171c0 23.406 19.017 42.423 42.423 42.423h702.171c23.406 0 42.423-19.017 42.423-42.423v-702.171c0-23.406-19.017-42.423-42.423-42.423h-702.171zM73.143 802.011c-17.554 0-32.183-14.629-32.183-32.183v-648.046c0-14.629 11.703-27.794 27.794-27.794h646.583c19.017 0 33.646 14.629 33.646 33.646v645.12c0 16.091-13.166 29.257-29.257 29.257h-646.583zM150.674 284.16c-10.24 0-19.017 8.777-19.017 17.554v2.926c0 10.24 8.777 17.554 17.554 17.554h506.149c10.24 0 17.554-8.777 17.554-17.554v-2.926c0-10.24-8.777-17.554-17.554-17.554h-504.686zM150.674 190.537c-10.24 0-19.017 8.777-19.017 17.554v2.926c0 10.24 8.777 17.554 17.554 17.554h506.149c10.24 0 17.554-8.777 17.554-17.554v-2.926c0-10.24-8.777-17.554-17.554-17.554h-504.686zM438.857 586.971c-10.24 0-17.554 8.777-17.554 17.554v4.389c0 10.24 8.777 17.554 17.554 17.554h209.189c10.24 0 17.554-8.777 17.554-17.554v-2.926c0-10.24-8.777-17.554-17.554-17.554h-209.189zM438.857 493.349c-10.24 0-17.554 8.777-17.554 17.554v2.926c0 10.24 8.777 17.554 17.554 17.554h209.189c10.24 0 17.554-8.777 17.554-17.554v-2.926c0-10.24-8.777-17.554-17.554-17.554h-209.189z" />
<glyph unicode="&#xe91b;" glyph-name="facebook-feed" data-tags="facebook-feed" horiz-adv-x="965" d="M198.949 393.874v181.394h-36.571v54.126h36.571v54.126c0 20.48 5.851 36.571 17.554 48.274 13.166 13.166 32.183 19.017 57.051 19.017h52.663v-57.051h-38.034c-10.24 0-19.017-10.24-19.017-17.554v-45.349h57.051c-1.463-24.869-5.851-46.811-5.851-55.589h-49.737v-181.394h-71.68zM51.2-34.743c-27.794 0-51.2 23.406-51.2 51.2v863.086c0 27.794 23.406 51.2 51.2 51.2h861.623c29.257 0 52.663-23.406 52.663-51.2v-861.623c0-27.794-23.406-51.2-51.2-51.2h-863.086zM89.234 882.469c-21.943 0-40.96-17.554-40.96-40.96v-794.331c0-19.017 14.629-33.646 33.646-33.646h794.331c21.943 0 40.96 17.554 40.96 40.96v791.406c0 20.48-16.091 36.571-36.571 36.571h-791.406zM184.32 246.126c-11.703 0-21.943 10.24-21.943 21.943v4.389c0 11.703 10.24 21.943 21.943 21.943h621.714c11.703 0 21.943-10.24 21.943-21.943v-4.389c0-11.703-10.24-21.943-21.943-21.943h-621.714zM184.32 132.023c-11.703 0-21.943 10.24-21.943 21.943v4.389c0 11.703 10.24 21.943 21.943 21.943h621.714c11.703 0 21.943-10.24 21.943-21.943v-4.389c0-11.703-10.24-21.943-21.943-21.943h-621.714zM538.331 617.691c-11.703 0-21.943 10.24-21.943 21.943v4.389c0 11.703 10.24 21.943 21.943 21.943h256c11.703 0 21.943-10.24 21.943-21.943v-4.389c0-11.703-10.24-21.943-21.943-21.943h-256zM538.331 503.589c-11.703 0-21.943 10.24-21.943 21.943v4.389c0 11.703 10.24 21.943 21.943 21.943h256c11.703 0 21.943-10.24 21.943-21.943v-4.389c0-11.703-10.24-21.943-21.943-21.943h-256z" />
<glyph unicode="&#xe91c;" glyph-name="fancy-text" data-tags="fancy-text" horiz-adv-x="965" d="M425.691 553.326h-220.891c-7.314 0-11.703-7.314-11.703-16.091v-83.383c0-7.314 7.314-11.703 11.703-11.703h27.794c7.314 0 16.091 7.314 16.091 11.703v11.703h27.794v-160.914h-13.166c-7.314 0-11.703-7.314-11.703-11.703v-27.794c0-7.314 7.314-11.703 11.703-11.703h109.714c7.314 0 11.703 7.314 11.703 11.703v27.794c0 7.314-7.314 11.703-11.703 11.703h-11.703v165.303h27.794v-11.703c0-7.314 7.314-11.703 11.703-11.703h27.794c7.314 0 16.091 7.314 16.091 11.703v83.383c-2.926 4.389-11.703 11.703-19.017 11.703zM413.989 486.034c0 7.314-7.314 11.703-11.703 11.703h-55.589c-7.314 0-16.091-7.314-16.091-16.091v-193.097c0-7.314 4.389-11.703 11.703-11.703h-51.2c7.314 0 11.703 7.314 11.703 11.703v194.56c0 7.314-7.314 16.091-11.703 16.091h-55.589c-7.314 0-11.703-4.389-11.703-11.703v39.497h193.097v-40.96h-2.926zM890.88 939.52h-816.274c-42.423 0-74.606-35.109-74.606-74.606v-835.291c0-43.886 35.109-74.606 74.606-74.606h816.274c43.886 0 74.606 35.109 74.606 74.606v830.903c0 43.886-32.183 78.994-74.606 78.994zM39.497 860.526c0 20.48 16.091 35.109 35.109 35.109h816.274c19.017 0 35.109-16.091 35.109-35.109v-835.291c0-19.017-16.091-35.109-35.109-35.109h-816.274c-19.017 0-35.109 16.091-35.109 35.109 0 0 0 835.291 0 835.291zM70.217 864.914h39.497v-39.497h-39.497v39.497zM146.286 864.914h39.497v-39.497h-39.497v39.497zM220.891 864.914h39.497v-39.497h-39.497v39.497zM70.217 790.309h819.2v-39.497h-819.2v39.497zM509.074 546.011h260.389v-27.794h-260.389v27.794zM509.074 469.943h260.389v-27.794h-260.389v27.794z" />
<glyph unicode="&#xe91d;" glyph-name="feature-list" data-tags="feature-list" horiz-adv-x="965" d="M519.314 524.069h163.84c10.24 0 17.554 7.314 17.554 17.554s-7.314 17.554-17.554 17.554h-163.84c-10.24 0-17.554-7.314-17.554-17.554s10.24-17.554 17.554-17.554zM789.943 487.497h-217.966c-10.24 0-17.554-7.314-17.554-17.554s7.314-17.554 17.554-17.554h217.966c10.24 0 17.554 7.314 17.554 17.554s-7.314 17.554-17.554 17.554zM368.64 428.983c38.034 0 70.217 32.183 70.217 70.217 1.463 17.554-4.389 35.109-17.554 48.274-13.166 14.629-33.646 23.406-54.126 23.406-38.034 0-70.217-32.183-70.217-70.217s33.646-71.68 71.68-71.68zM368.64 532.846c20.48 0 36.571-16.091 36.571-36.571 1.463-7.314-1.463-16.091-7.314-23.406-7.314-8.777-17.554-13.166-29.257-13.166-20.48 0-36.571 16.091-36.571 36.571s16.091 36.571 36.571 36.571zM519.314 262.217h146.286c10.24 0 17.554 7.314 17.554 17.554s-7.314 16.091-17.554 16.091h-146.286c-10.24 0-17.554-7.314-17.554-17.554s10.24-16.091 17.554-16.091zM789.943 225.646h-217.966c-10.24 0-17.554-7.314-17.554-17.554s7.314-17.554 17.554-17.554h217.966c10.24 0 17.554 7.314 17.554 17.554s-7.314 17.554-17.554 17.554zM368.64 307.566c-38.034 0-70.217-32.183-70.217-70.217s32.183-70.217 70.217-70.217 70.217 32.183 70.217 70.217c1.463 38.034-30.72 70.217-70.217 70.217zM397.897 209.554c-7.314-8.777-17.554-13.166-29.257-13.166-20.48 0-36.571 16.091-36.571 36.571s16.091 36.571 36.571 36.571 36.571-16.091 36.571-36.571c1.463-7.314-1.463-16.091-7.314-23.406zM35.109 193.463v636.343c0 14.629 13.166 30.72 30.72 30.72h703.634c14.629 0 30.72-13.166 30.72-30.72v-36.571h39.497v36.571c0 38.034-29.257 67.291-67.291 67.291h-706.56c-38.034 0-67.291-29.257-67.291-67.291v-639.269c2.926-36.571 33.646-67.291 67.291-67.291h36.571v39.497h-36.571c-14.629 0-30.72 13.166-30.72 30.72zM901.12 771.291h-705.097c-38.034 0-67.291-29.257-67.291-67.291v-639.269c0-38.034 29.257-67.291 67.291-67.291h703.634c38.034 0 67.291 29.257 67.291 67.291v637.806c1.463 38.034-27.794 68.754-65.829 68.754zM934.766 63.269c0-14.629-13.166-30.72-30.72-30.72h-708.023c-14.629 0-30.72 13.166-30.72 30.72l2.926 639.269c0 14.629 13.166 30.72 30.72 30.72h703.634c14.629 0 30.72-13.166 30.72-30.72v-639.269h1.463zM95.086 832.731h39.497v-39.497h-39.497v39.497zM159.451 832.731h39.497v-39.497h-39.497v39.497zM225.28 832.731h39.497v-39.497h-39.497v39.497zM539.794 469.943c0-10.503-8.514-19.017-19.017-19.017s-19.017 8.514-19.017 19.017c0 10.503 8.514 19.017 19.017 19.017s19.017-8.514 19.017-19.017zM539.794 206.629c0-10.503-8.514-19.017-19.017-19.017s-19.017 8.514-19.017 19.017c0 10.503 8.514 19.017 19.017 19.017s19.017-8.514 19.017-19.017z" />
<glyph unicode="&#xe91e;" glyph-name="filterable-gallery" data-tags="filterable-gallery" horiz-adv-x="965" d="M899.657 872.229h-832.366c-38.034 0-67.291-32.183-67.291-67.291v-713.874c0-38.034 32.183-67.291 67.291-67.291h829.44c38.034 0 67.291 32.183 67.291 67.291v713.874c4.389 38.034-27.794 67.291-64.366 67.291zM38.034 804.937c0 17.554 14.629 29.257 29.257 29.257h829.44c17.554 0 29.257-14.629 29.257-29.257v-713.874c0-17.554-14.629-29.257-29.257-29.257h-829.44c-17.554 0-29.257 14.629-29.257 29.257v713.874zM392.046 211.017h177.006c8.777 0 17.554 5.851 17.554 17.554v182.857c0 8.777-5.851 17.554-17.554 17.554h-177.006c-8.777 0-17.554-5.851-17.554-17.554v-182.857c2.926-11.703 8.777-17.554 17.554-17.554zM554.423 390.949v-150.674h-144.823v150.674h144.823zM136.046 211.017h162.377c8.777 0 17.554 5.851 17.554 17.554v182.857c0 8.777-5.851 17.554-17.554 17.554h-162.377c-8.777 0-17.554-5.851-17.554-17.554v-182.857c0-11.703 5.851-17.554 17.554-17.554zM280.869 390.949v-150.674h-130.194v150.674h130.194zM392.046 477.257h177.006c8.777 0 17.554 5.851 17.554 17.554v182.857c0 8.777-5.851 17.554-17.554 17.554h-177.006c-8.777 0-17.554-5.851-17.554-17.554v-182.857c2.926-8.777 8.777-17.554 17.554-17.554zM554.423 660.114v-144.823c-14.629 14.629-43.886 40.96-43.886 40.96h-5.851l-23.406-20.48-32.183 38.034-2.926 2.926h-5.851c0 0-20.48-29.257-35.109-52.663v138.971h150.674l-1.463-2.926zM652.434 211.017h177.006c8.777 0 17.554 5.851 17.554 17.554v182.857c0 8.777-5.851 17.554-17.554 17.554h-177.006c-8.777 0-17.554-5.851-17.554-17.554v-182.857c0-11.703 8.777-17.554 17.554-17.554zM811.886 390.949v-150.674h-144.823v150.674h144.823zM652.434 477.257h177.006c8.777 0 17.554 5.851 17.554 17.554v182.857c0 8.777-5.851 17.554-17.554 17.554h-177.006c-8.777 0-17.554-5.851-17.554-17.554v-182.857c0-8.777 8.777-17.554 17.554-17.554zM811.886 660.114v-150.674h-144.823v150.674h144.823zM136.046 477.257h162.377c8.777 0 17.554 5.851 17.554 17.554v182.857c0 8.777-5.851 17.554-17.554 17.554h-162.377c-8.777 0-17.554-5.851-17.554-17.554v-182.857c0-8.777 5.851-17.554 17.554-17.554zM280.869 660.114v-150.674h-130.194v150.674c0 0 130.194 0 130.194 0zM526.629 589.897c0-10.503-8.514-19.017-19.017-19.017s-19.017 8.514-19.017 19.017c0 10.503 8.514 19.017 19.017 19.017s19.017-8.514 19.017-19.017z" />
<glyph unicode="&#xe91f;" glyph-name="flip-box" data-tags="flip-box" horiz-adv-x="965" d="M911.36 960h-4.389l-766.537-118.491c-13.166-4.389-21.943-11.703-21.943-21.943v-741.669c0-8.777 7.314-17.554 21.943-21.943l769.463-119.954c2.926 0 5.851 1.463 8.777 2.926 1.463 1.463 2.926 1.463 5.851 2.926l1.463 1.463v1.463c0 1.463 0 1.463 1.463 2.926 1.463 2.926 2.926 5.851 2.926 10.24v980.114c0 13.166-7.314 21.943-19.017 21.943zM885.029-6.949l-725.577 98.011v716.8l725.577 100.937v-915.749zM256 469.943h168.229c11.703 0 21.943 10.24 21.943 21.943s-11.703 19.017-21.943 19.017l-168.229-5.851c-10.24 0-21.943-7.314-21.943-19.017 0-7.314 10.24-16.091 21.943-16.091zM535.406 474.331c8.777 0 11.703 4.389 14.629 10.24 2.926 2.926 7.314 7.314 7.314 14.629 0 4.389-4.389 11.703-7.314 14.629-4.389 4.389-8.777 4.389-14.629 4.389-4.389 0-11.703-4.389-14.629-7.314s-7.314-10.24-7.314-14.629c0-7.314 4.389-11.703 7.314-14.629 2.926-4.389 10.24-7.314 14.629-7.314zM348.16 388.023c0-7.314 10.24-19.017 21.943-19.017l400.823-19.017c2.926 0 5.851 1.463 8.777 2.926 1.463 1.463 2.926 1.463 7.314 4.389 2.926 2.926 7.314 10.24 7.314 17.554 0 14.629-11.703 24.869-21.943 24.869l-400.823 5.851c-11.703 1.463-23.406-5.851-23.406-17.554zM272.091 402.651v0c-1.463 0-2.926 0-4.389 1.463-2.926 1.463-5.851 2.926-10.24 2.926-7.314 0-10.24 0-14.629-4.389l-1.463-1.463v-1.463c0-1.463 0-2.926-1.463-2.926-1.463-1.463-1.463-4.389-1.463-5.851 0-2.926 0-7.314 4.389-11.703 2.926-2.926 7.314-7.314 14.629-7.314 2.926 0 11.703 0 16.091 8.777 0 1.463 0 2.926 1.463 2.926 1.463 1.463 1.463 4.389 1.463 5.851 1.463 4.389 1.463 8.777-4.389 13.166v0zM32.183 766.903c-2.926 0-4.389 0-5.851-1.463l-7.314-2.926c-10.24-7.314-17.554-17.554-17.554-27.794v-579.291c0-10.24 5.851-20.48 17.554-27.794v0h2.926c1.463-1.463 4.389-1.463 5.851-1.463 5.851 0 13.166 4.389 16.091 13.166v614.4c1.463 8.777-5.851 13.166-11.703 13.166z" />
<glyph unicode="&#xe920;" glyph-name="flip-carousel" data-tags="flip-carousel" horiz-adv-x="965" d="M235.52 673.28c0 0 0 0-225.28-52.663-5.851-1.463-10.24-5.851-10.24-11.703v-324.754c0-4.389 4.389-10.24 10.24-11.703l225.28-51.2h1.463c2.926 0 4.389 1.463 5.851 2.926s2.926 4.389 2.926 7.314v430.080c0 7.314-4.389 11.703-10.24 11.703zM21.943 291.474v310.126l203.337 42.423v-394.971l-203.337 42.423zM955.246 620.617c-225.28 52.663-225.28 52.663-225.28 52.663-5.851 0-10.24-4.389-10.24-10.24v-430.080c0-2.926 1.463-5.851 2.926-7.314s4.389-2.926 5.851-2.926h1.463l225.28 52.663c5.851 1.463 10.24 5.851 10.24 11.703v321.829c0 5.851-4.389 10.24-10.24 11.703zM741.669 249.051v394.971l201.874-42.423v-310.126l-168.229-35.109-33.646-7.314zM649.509 704h-332.069c-19.017 0-33.646-14.629-33.646-33.646v-446.171c0-19.017 14.629-33.646 33.646-33.646h332.069c19.017 0 33.646 14.629 33.646 33.646v446.171c0 19.017-14.629 33.646-33.646 33.646zM655.36 224.183c0-2.926-2.926-5.851-5.851-5.851h-332.069c-2.926 0-5.851 2.926-5.851 5.851v446.171c0 2.926 2.926 5.851 5.851 5.851h332.069c2.926 0 5.851-2.926 5.851-5.851v-446.171z" />
<glyph unicode="&#xe921;" glyph-name="fluent-forms" data-tags="fluent-forms" horiz-adv-x="965" d="M902.583 927.817h-836.754c-35.109 0-65.829-30.72-65.829-65.829v-836.754c0-35.109 30.72-65.829 65.829-65.829h836.754c35.109 0 65.829 30.72 65.829 65.829v836.754c0 38.034-27.794 65.829-65.829 65.829zM35.109 799.086v65.829c0 16.091 16.091 30.72 30.72 30.72h836.754c16.091 0 30.72-16.091 30.72-30.72v-65.829c0 0 0 0 0-4.389v-766.537c0-16.091-16.091-30.72-30.72-30.72h-836.754c-16.091 0-30.72 16.091-30.72 30.72 0 1.463 0 770.926 0 770.926zM193.097 265.143h552.96c19.017 0 35.109 16.091 35.109 35.109v193.097c0 19.017-16.091 35.109-35.109 35.109h-552.96c-19.017 0-35.109-16.091-35.109-35.109v-193.097c0-23.406 16.091-35.109 35.109-35.109zM193.097 300.251v190.171h550.034v-190.171h-550.034zM178.469 699.611h251.611c11.703 0 19.017 7.314 19.017 19.017s-7.314 19.017-19.017 19.017h-251.611c-11.703 0-19.017-7.314-19.017-19.017-1.463-11.703 7.314-19.017 19.017-19.017zM533.943 699.611h232.594c11.703 0 19.017 7.314 19.017 19.017s-7.314 19.017-19.017 19.017h-232.594c-11.703 0-19.017-7.314-19.017-19.017s7.314-19.017 19.017-19.017zM359.863 180.297h-174.080c-11.703 0-19.017-7.314-19.017-19.017s7.314-19.017 19.017-19.017h174.080c11.703 0 19.017 7.314 19.017 19.017s-7.314 19.017-19.017 19.017zM178.469 594.286h595.383c11.703 0 19.017 7.314 19.017 19.017s-7.314 19.017-19.017 19.017h-595.383c-11.703 0-19.017-7.314-19.017-19.017s7.314-19.017 19.017-19.017z" />
<glyph unicode="&#xe922;" glyph-name="formstack" data-tags="formstack" horiz-adv-x="965" d="M902.583 927.817h-836.754c-35.109 0-65.829-30.72-65.829-65.829v-836.754c0-35.109 30.72-65.829 65.829-65.829h836.754c35.109 0 65.829 30.72 65.829 65.829v836.754c0 38.034-27.794 65.829-65.829 65.829zM35.109 799.086v65.829c0 16.091 16.091 30.72 30.72 30.72h836.754c16.091 0 30.72-16.091 30.72-30.72v-65.829c0 0 0 0 0-4.389v-766.537c0-16.091-16.091-30.72-30.72-30.72h-836.754c-16.091 0-30.72 16.091-30.72 30.72 0 1.463 0 770.926 0 770.926zM206.263 259.291h552.96c19.017 0 35.109 16.091 35.109 35.109v193.097c0 19.017-16.091 35.109-35.109 35.109h-552.96c-19.017 0-35.109-16.091-35.109-35.109v-193.097c0-23.406 16.091-35.109 35.109-35.109zM206.263 294.4v190.171h550.034v-190.171h-550.034zM178.469 699.611h251.611c11.703 0 19.017 7.314 19.017 19.017s-7.314 19.017-19.017 19.017h-251.611c-11.703 0-19.017-7.314-19.017-19.017-1.463-11.703 7.314-19.017 19.017-19.017zM533.943 699.611h232.594c11.703 0 19.017 7.314 19.017 19.017s-7.314 19.017-19.017 19.017h-232.594c-11.703 0-19.017-7.314-19.017-19.017s7.314-19.017 19.017-19.017zM178.469 600.137h251.611c11.703 0 19.017 7.314 19.017 19.017s-7.314 19.017-19.017 19.017h-251.611c-11.703 0-19.017-7.314-19.017-19.017-1.463-11.703 7.314-19.017 19.017-19.017zM533.943 600.137h232.594c11.703 0 19.017 7.314 19.017 19.017s-7.314 19.017-19.017 19.017h-232.594c-11.703 0-19.017-7.314-19.017-19.017s7.314-19.017 19.017-19.017zM359.863 180.297h-174.080c-11.703 0-19.017-7.314-19.017-19.017s7.314-19.017 19.017-19.017h174.080c11.703 0 19.017 7.314 19.017 19.017s-7.314 19.017-19.017 19.017z" />
<glyph unicode="&#xe923;" glyph-name="gravity-form" data-tags="gravity-form" horiz-adv-x="965" d="M709.486 531.383h-557.349c-19.017 0-30.72-14.629-30.72-30.72v-193.097c0-19.017 14.629-30.72 30.72-30.72h557.349c19.017 0 30.72 14.629 30.72 30.72v194.56c0 14.629-11.703 29.257-30.72 29.257zM709.486 304.64h-555.886v193.097h557.349c-1.463 0-1.463-193.097-1.463-193.097zM901.12 930.743h-836.754c-38.034 0-64.366-30.72-64.366-64.366v-836.754c0-38.034 30.72-64.366 64.366-64.366h836.754c38.034 0 64.366 30.72 64.366 64.366v836.754c1.463 38.034-29.257 64.366-64.366 64.366zM33.646 804.937v61.44c0 14.629 14.629 30.72 30.72 30.72h836.754c14.629 0 30.72-14.629 30.72-30.72v-61.44h-898.194zM33.646 768.366h898.194v-735.817c0-14.629-14.629-30.72-30.72-30.72h-836.754c-14.629 0-30.72 14.629-30.72 30.72 0 0 0 735.817 0 735.817zM95.086 869.303h-14.629c-11.703 0-19.017-7.314-19.017-19.017s7.314-19.017 19.017-19.017h14.629c11.703 0 19.017 7.314 19.017 19.017s-7.314 19.017-19.017 19.017zM177.006 869.303h-14.629c-11.703 0-19.017-7.314-19.017-19.017s7.314-19.017 19.017-19.017h14.629c11.703 0 19.017 7.314 19.017 19.017s-7.314 19.017-19.017 19.017zM257.463 869.303h-14.629c-11.703 0-19.017-7.314-19.017-19.017s7.314-19.017 19.017-19.017h14.629c11.703 0 19.017 7.314 19.017 19.017s-7.314 19.017-19.017 19.017zM137.509 630.857h253.074c11.703 0 19.017 7.314 19.017 19.017s-7.314 19.017-19.017 19.017h-253.074c-11.703 0-19.017-7.314-19.017-19.017 0-10.24 11.703-19.017 19.017-19.017zM475.429 630.857h253.074c11.703 0 19.017 7.314 19.017 19.017s-7.314 19.017-19.017 19.017h-253.074c-11.703 0-19.017-7.314-19.017-19.017 2.926-10.24 10.24-19.017 19.017-19.017zM321.829 190.537h-177.006c-11.703 0-19.017-7.314-19.017-19.017s7.314-19.017 19.017-19.017h177.006c11.703 0 19.017 7.314 19.017 19.017s-7.314 19.017-19.017 19.017z" />
<glyph unicode="&#xe924;" glyph-name="image-accrodion" data-tags="image-accrodion" horiz-adv-x="965" d="M946.469 954.149h-921.6c-13.166 0-21.943-10.24-21.943-23.406v-965.486c0-13.166 10.24-23.406 23.406-23.406h915.749c13.166 0 23.406 10.24 23.406 23.406v965.486c2.926 13.166-7.314 23.406-19.017 23.406zM510.537 908.8h412.526v-920.137h-412.526v920.137zM463.726 908.8v-920.137h-412.526v920.137h412.526zM627.566 589.897h181.394v-45.349h-181.394v45.349zM627.566 472.869h181.394v-45.349h-181.394v45.349zM627.566 352.914h181.394v-45.349h-181.394v45.349z" />
<glyph unicode="&#xe925;" glyph-name="image-comparison" data-tags="image-comparison" horiz-adv-x="965" d="M940.617 958.537h-917.211c-13.166 0-23.406-10.24-23.406-23.406v-966.949c0-13.166 10.24-23.406 23.406-23.406h918.674c13.166 0 23.406 10.24 23.406 23.406v964.023c-1.463 10.24-11.703 26.331-24.869 26.331zM45.349-8.411v918.674h413.989v-201.874h-179.931c-13.166 0-23.406-10.24-23.406-23.406v-440.32c0-13.166 10.24-23.406 23.406-23.406h178.469v-231.131l-412.526 1.463zM504.686 329.509c2.926 0 5.851-2.926 10.24-2.926 5.851 0 10.24 2.926 13.166 5.851l143.36 143.36 111.177-111.177v-103.863h-280.869v68.754c0 0 2.926 0 2.926 0zM687.543 515.291c-2.926 2.926-10.24 5.851-13.166 5.851-5.851 0-10.24-2.926-13.166-5.851l-146.286-143.36-10.24 10.24v283.794h279.406v-247.223l-96.549 96.549zM459.337 257.829h-162.377v411.063h162.377v-411.063zM918.674 892.709v-901.12h-413.989v231.131h296.96c13.166 0 23.406 10.24 23.406 23.406v435.931c0 13.166-10.24 23.406-23.406 23.406h-296.96v200.411h413.989v-13.166zM592.457 619.154c-26.331 0-45.349-19.017-45.349-45.349s19.017-45.349 45.349-45.349 45.349 19.017 45.349 45.349c0 26.331-19.017 45.349-45.349 45.349z" />
<glyph unicode="&#xe926;" glyph-name="image-hotspots" data-tags="image-hotspots" horiz-adv-x="965" d="M373.029 467.017c33.646 0 59.977 26.331 59.977 59.977s-26.331 59.977-59.977 59.977-59.977-26.331-59.977-59.977c0-32.183 26.331-59.977 59.977-59.977zM912.823 282.697c-29.257 29.257-70.217 46.811-109.714 52.663h-2.926v476.891c0 33.646-13.166 62.903-36.571 86.309-24.869 23.406-54.126 36.571-87.771 36.571h-552.96c-33.646 0-62.903-13.166-86.309-36.571s-36.571-52.663-36.571-86.309v-683.154c0-33.646 13.166-62.903 36.571-86.309s52.663-36.571 86.309-36.571h532.48c36.571-29.257 76.069-43.886 119.954-43.886 49.737 0 96.549 20.48 133.12 57.051s57.051 83.383 57.051 133.12c0 46.811-20.48 95.086-52.663 130.194zM36.571 812.251c0 23.406 10.24 43.886 26.331 59.977s36.571 26.331 59.977 26.331h550.034c23.406 0 43.886-10.24 59.977-26.331s26.331-36.571 26.331-59.977v-433.006l-143.36 141.897c-2.926 2.926-10.24 7.314-13.166 7.314-7.314 0-10.24-2.926-13.166-7.314l-213.577-209.189-159.451 143.36c-2.926 2.926-10.24 7.314-13.166 7.314-7.314 0-10.24-2.926-13.166-7.314l-153.6-157.989v514.926zM122.88 41.326l-5.851 4.389c-20.48 0-39.497 10.24-57.051 26.331s-23.406 36.571-23.406 59.977v111.177l166.766 169.691 159.451-143.36c2.926-2.926 7.314-7.314 13.166-7.314 7.314 0 10.24 2.926 13.166 7.314l210.651 210.651 143.36-143.36c0 0-52.663-19.017-57.051-21.943 0 0-36.571-23.406-43.886-33.646-36.571-36.571-57.051-83.383-57.051-133.12 0-13.166 0-23.406 2.926-39.497l2.926-10.24c2.926-10.24 7.314-16.091 10.24-26.331l2.926-2.926c2.926-7.314 7.314-13.166 10.24-16.091l7.314-10.24c1.463-1.463-498.834-1.463-498.834-1.463zM882.103 41.326c-26.331-26.331-67.291-43.886-106.789-43.886s-76.069 16.091-103.863 43.886c-2.926 0-33.646 35.109-45.349 73.143-2.926 10.24-2.926 20.48-2.926 29.257 0 39.497 16.091 76.069 43.886 106.789 26.331 26.331 67.291 43.886 106.789 43.886s76.069-16.091 106.789-43.886c26.331-26.331 43.886-67.291 43.886-106.789 1.463-35.109-11.703-71.68-42.423-102.4zM832.366 170.057h-39.497v39.497c0 10.24-10.24 20.48-20.48 20.48s-20.48-10.24-20.48-20.48v-39.497h-39.497c-10.24 0-20.48-10.24-20.48-20.48s10.24-20.48 20.48-20.48h39.497v-39.497c0-10.24 10.24-20.48 20.48-20.48s20.48 10.24 20.48 20.48v39.497h39.497c10.24 0 20.48 10.24 20.48 20.48s-7.314 20.48-20.48 20.48z" />
<glyph unicode="&#xe927;" glyph-name="image-scroller" data-tags="image-scroller" horiz-adv-x="965" d="M482.743-55.223c-2.926 0-5.851 0-8.777 2.926l-68.754 68.754c-5.851 5.851-5.851 8.777-5.851 11.703s0 5.851 2.926 8.777 5.851 2.926 8.777 2.926 5.851 0 8.777-2.926l61.44-61.44 61.44 61.44c2.926 2.926 5.851 2.926 8.777 2.926s5.851 0 8.777-2.926c5.851-5.851 5.851-13.166 0-19.017l-68.754-68.754c-2.926-1.463-5.851-4.389-8.777-4.389v0zM551.497 864.914c-2.926 0-5.851 0-8.777 2.926l-59.977 64.366-61.44-61.44c-2.926-2.926-5.851-2.926-8.777-2.926s-5.851 0-8.777 2.926-5.851 5.851-5.851 8.777 0 5.851 2.926 8.777l68.754 68.754c4.389 2.926 7.314 2.926 10.24 2.926s5.851 0 8.777-2.926l68.754-70.217c2.926-2.926 2.926-5.851 2.926-8.777s0-5.851-2.926-8.777c2.926-1.463 0-4.389-5.851-4.389v0zM885.029 371.931c-2.926 0-5.851 0-8.777 2.926s-2.926 5.851-2.926 8.777 0 5.851 2.926 8.777l61.44 61.44-61.44 61.44c-2.926 2.926-2.926 5.851-2.926 8.777s0 5.851 2.926 8.777 5.851 2.926 8.777 2.926 5.851 0 8.777-2.926l68.754-68.754c2.926-2.926 2.926-5.851 2.926-8.777s0-5.851-2.926-8.777l-68.754-71.68c-2.926-2.926-5.851-2.926-8.777-2.926zM80.457 371.931c-2.926 0-5.851 0-8.777 2.926l-68.754 68.754c-2.926 2.926-2.926 5.851-2.926 8.777s0 5.851 2.926 8.777l68.754 68.754c2.926 2.926 5.851 2.926 8.777 2.926s5.851 0 8.777-2.926 2.926-5.851 2.926-8.777 0-5.851-2.926-8.777l-61.44-61.44 61.44-61.44c2.926-2.926 2.926-5.851 2.926-8.777s0-5.851-2.926-8.777c-2.926 0-5.851 0-8.777 0v0zM463.726 493.349c27.794 0 52.663 24.869 52.663 52.663s-24.869 52.663-52.663 52.663-52.663-24.869-52.663-52.663c0-27.794 24.869-52.663 52.663-52.663zM829.44 462.629v241.371c-2.926 24.869-13.166 49.737-30.72 67.291-19.017 19.017-46.811 30.72-74.606 30.72h-476.891c-27.794 0-55.589-11.703-74.606-30.72s-30.72-46.811-30.72-74.606v-506.149c0-27.794 11.703-55.589 30.72-74.606s46.811-30.72 74.606-30.72h473.966c27.794 0 55.589 11.703 74.606 30.72 19.017 21.943 30.72 46.811 30.72 74.606v64.366l2.926 207.726zM174.080 696.686c0 19.017 7.314 39.497 20.48 52.663s33.646 21.943 52.663 21.943h473.966c19.017 0 39.497-8.777 52.663-21.943s21.943-33.646 21.943-52.663v-280.869l-124.343 124.343c-2.926 2.926-8.777 5.851-11.703 5.851-5.851 0-8.777-2.926-11.703-5.851l-178.469-179.931-138.971 124.343c-2.926 2.926-8.777 5.851-11.703 5.851-5.851 0-8.777-2.926-11.703-5.851l-133.12-136.046v348.16zM795.794 254.903v-64.366c0-19.017-8.777-39.497-21.943-52.663s-30.72-21.943-46.811-21.943v0l-5.851-2.926h-473.966l-5.851 2.926c-16.091 0-36.571 8.777-46.811 21.943-13.166 13.166-21.943 33.646-21.943 52.663v108.251l144.823 147.749 138.971-121.417c2.926-2.926 8.777-5.851 11.703-5.851 5.851 0 8.777 2.926 11.703 5.851l179.931 179.931 86.309-89.234 36.571-39.497 13.166-13.166v-108.251z" />
<glyph unicode="&#xe928;" glyph-name="info-box" data-tags="info-box" horiz-adv-x="965" d="M235.52 303.177h503.223c10.24 0 19.017 7.314 19.017 19.017v251.611c0 10.24-7.314 19.017-19.017 19.017h-503.223c-10.24 0-19.017-7.314-19.017-19.017v-251.611c0-11.703 8.777-19.017 19.017-19.017zM251.611 554.789h465.189v-213.577h-465.189v213.577zM305.737 465.554h106.789c10.24 0 19.017 7.314 19.017 19.017 0 10.24-7.314 16.091-16.091 16.091h-108.251c-10.24 0-19.017-7.314-19.017-19.017 1.463-8.777 8.777-16.091 17.554-16.091zM484.206 465.554c5.851 0 7.314 2.926 13.166 5.851 2.926 2.926 5.851 7.314 5.851 13.166s-2.926 7.314-5.851 13.166c-7.314 5.851-19.017 5.851-26.331 0-2.926-2.926-5.851-7.314-5.851-13.166s2.926-7.314 5.851-13.166c5.851-5.851 10.24-5.851 13.166-5.851zM665.6 428.983h-288.183c-10.24 0-19.017-7.314-19.017-19.017 0-10.24 7.314-19.017 19.017-19.017h286.72c10.24 0 19.017 7.314 19.017 19.017-1.463 11.703-8.777 19.017-17.554 19.017zM294.034 423.131c-2.926-2.926-5.851-7.314-5.851-13.166s2.926-7.314 5.851-13.166c2.926-2.926 7.314-5.851 13.166-5.851s7.314 2.926 13.166 5.851c2.926 2.926 5.851 7.314 5.851 13.166s-2.926 7.314-5.851 13.166c-7.314 10.24-20.48 10.24-26.331 0zM484.206 878.080v0c-48.274 0-90.697-39.497-90.697-90.697s39.497-90.697 90.697-90.697v0c48.274 0 90.697 39.497 90.697 90.697s-39.497 90.697-90.697 90.697zM484.206 734.72v0c-29.257 0-54.126 23.406-54.126 54.126s23.406 54.126 54.126 54.126v0c29.257 0 54.126-23.406 54.126-54.126s-21.943-54.126-54.126-54.126zM928.914 74.971c0-10.24-2.926-19.017-14.629-19.017h-857.234c-10.24 0-19.017 7.314-19.017 19.017v640.731c0 11.703-8.777 19.017-19.017 19.017v0c-10.24 0-19.017-7.314-19.017-19.017v-662.674c0-19.017 16.091-35.109 35.109-35.109h895.269c19.017 0 35.109 16.091 35.109 35.109v661.211c0 10.24-7.314 19.017-19.017 19.017v0c-10.24 0-19.017-7.314-19.017-19.017v-571.977l1.463-67.291z" />
<glyph unicode="&#xe929;" glyph-name="instagram-feed" data-tags="instagram-feed" horiz-adv-x="965" d="M901.12 872.229h-830.903c-38.034 0-68.754-32.183-68.754-67.291v-712.411c0-39.497 33.646-68.754 68.754-68.754h827.977c38.034 0 67.291 32.183 67.291 67.291v713.874c2.926 38.034-29.257 67.291-64.366 67.291zM927.451 92.526c0-17.554-14.629-29.257-29.257-29.257h-827.977c-17.554 0-29.257 14.629-29.257 29.257v712.411c0 17.554 14.629 29.257 29.257 29.257h827.977c17.554 0 29.257-14.629 29.257-29.257 0 0 0-712.411 0-712.411zM570.514 430.446h-177.006c-8.777 0-17.554-5.851-17.554-17.554v-182.857c2.926-11.703 8.777-17.554 17.554-17.554h177.006c8.777 0 17.554 5.851 17.554 17.554v182.857c0 8.777-2.926 17.554-17.554 17.554zM555.886 241.737h-144.823v150.674h144.823v-150.674zM299.886 430.446h-162.377c-8.777 0-17.554-5.851-17.554-17.554v-182.857c0-11.703 5.851-17.554 17.554-17.554h162.377c8.777 0 17.554 5.851 17.554 17.554v182.857c2.926 8.777-2.926 17.554-17.554 17.554zM285.257 241.737h-130.194v150.674h130.194v-150.674zM829.44 430.446h-177.006c-8.777 0-17.554-5.851-17.554-17.554v-182.857c0-11.703 8.777-17.554 17.554-17.554h177.006c8.777 0 17.554 5.851 17.554 17.554v182.857c2.926 8.777-2.926 17.554-17.554 17.554zM814.811 241.737h-144.823v150.674h144.823c0 0 0-150.674 0-150.674zM829.44 695.223h-177.006c-8.777 0-17.554-5.851-17.554-17.554v-182.857c0-8.777 8.777-17.554 17.554-17.554h177.006c8.777 0 17.554 5.851 17.554 17.554v182.857c2.926 8.777-2.926 17.554-17.554 17.554zM814.811 510.903h-144.823v149.211h144.823c0 0 0-149.211 0-149.211zM299.886 695.223h-162.377c-8.777 0-17.554-5.851-17.554-17.554v-182.857c0-8.777 5.851-17.554 17.554-17.554h162.377c8.777 0 17.554 5.851 17.554 17.554v182.857c2.926 8.777-2.926 17.554-17.554 17.554zM285.257 510.903h-130.194v149.211h130.194v-149.211zM532.48 698.149h-93.623c-35.109 0-64.366-29.257-64.366-64.366v-93.623c0-35.109 29.257-64.366 64.366-64.366h93.623c35.109 0 58.514 29.257 58.514 64.366v93.623c-2.926 35.109-23.406 64.366-58.514 64.366zM402.286 633.783c0 17.554 14.629 32.183 32.183 32.183h93.623c17.554 0 32.183-14.629 32.183-32.183v-93.623c0-17.554-14.629-32.183-32.183-32.183h-93.623c-17.554 0-32.183 14.629-32.183 32.183 0 0 0 93.623 0 93.623zM476.891 535.771c23.406 0 43.886 20.48 43.886 43.886s-20.48 43.886-43.886 43.886c-10.24 0-19.017-2.926-26.331-8.777-23.406-17.554-20.48-54.126 2.926-70.217 7.314-5.851 14.629-8.777 23.406-8.777zM476.891 603.063c11.703 0 23.406-11.703 23.406-23.406s-11.703-23.406-23.406-23.406-23.406 11.703-23.406 23.406 11.703 23.406 23.406 23.406zM536.869 636.709c0-7.271-5.894-13.166-13.166-13.166s-13.166 5.894-13.166 13.166c0 7.271 5.894 13.166 13.166 13.166s13.166-5.894 13.166-13.166z" />
<glyph unicode="&#xe92a;" glyph-name="interactive-cards" data-tags="interactive-cards" horiz-adv-x="965" d="M945.006 960h-921.6c-13.166 0-23.406-10.24-23.406-23.406v-968.411c0-13.166 10.24-23.406 23.406-23.406h918.674c13.166 0 23.406 10.24 23.406 23.406v968.411c2.926 13.166-7.314 23.406-20.48 23.406zM923.063-8.411h-873.326v923.063h873.326v-923.063zM220.891 784.457v-198.949c0-23.406 16.091-39.497 39.497-39.497h449.097c23.406 0 39.497 16.091 39.497 39.497v198.949c0 23.406-16.091 39.497-39.497 39.497h-449.097c-21.943-1.463-39.497-17.554-39.497-39.497zM710.949 585.509h-450.56v198.949h450.56v-198.949zM238.446 251.977v-133.12c0-23.406 16.091-39.497 39.497-39.497h449.097c23.406 0 39.497 16.091 39.497 39.497v133.12c0 23.406-16.091 39.497-39.497 39.497h-453.486c-19.017 0-35.109-16.091-35.109-39.497zM724.114 118.857h-450.56v133.12h450.56v-133.12zM251.611 468.48h430.080c5.851 0 13.166 5.851 13.166 13.166v13.166c0 5.851-5.851 13.166-13.166 13.166h-430.080c-5.851 0-13.166-5.851-13.166-13.166v-13.166c0-7.314 2.926-13.166 13.166-13.166zM251.611 386.56h137.509c5.851 0 13.166 5.851 13.166 13.166v13.166c0 5.851-5.851 13.166-13.166 13.166h-137.509c-5.851 0-13.166-5.851-13.166-13.166v-13.166c0-7.314 2.926-13.166 13.166-13.166z" />
<glyph unicode="&#xe92b;" glyph-name="interactive-promo" data-tags="interactive-promo" horiz-adv-x="965" d="M945.006 960h-921.6c-13.166 0-23.406-10.24-23.406-23.406v-966.949c0-13.166 10.24-23.406 23.406-23.406h918.674c13.166 0 23.406 10.24 23.406 23.406v966.949c1.463 13.166-8.777 23.406-20.48 23.406zM921.6-6.949h-871.863v921.6h871.863c0 0 0-921.6 0-921.6zM238.446 755.2v-231.131c0-23.406 16.091-39.497 39.497-39.497h449.097c23.406 0 39.497 16.091 39.497 39.497v231.131c0 23.406-16.091 39.497-39.497 39.497h-453.486c-19.017-1.463-35.109-17.554-35.109-39.497zM722.651 524.069h-449.097v231.131h449.097v-231.131zM351.086 660.114h103.863c5.851 0 13.166 5.851 13.166 13.166v13.166c0 5.851-5.851 13.166-13.166 13.166h-103.863c-5.851 0-13.166-5.851-13.166-13.166v-13.166c1.463-5.851 4.389-13.166 13.166-13.166zM523.703 660.114h105.326c5.851 0 13.166 5.851 13.166 13.166v13.166c0 5.851-5.851 13.166-13.166 13.166h-103.863c-5.851 0-13.166-5.851-13.166-13.166v-13.166c0-5.851 5.851-13.166 11.703-13.166zM722.651 423.131h-449.097c-23.406 0-39.497-16.091-39.497-39.497v-231.131c0-23.406 16.091-39.497 39.497-39.497h449.097c23.406 0 39.497 16.091 39.497 39.497v231.131c0 23.406-16.091 39.497-39.497 39.497zM722.651 152.503h-449.097v231.131h449.097v-231.131z" />
<glyph unicode="&#xe92c;" glyph-name="learndash" data-tags="learndash" horiz-adv-x="965" d="M601.234 4.754c-67.291 0-133.12 5.851-198.949 20.48-8.777 2.926-14.629 8.777-14.629 20.48v226.743l-118.491 33.646c-8.777 0-14.629 8.777-14.629 17.554s5.851 17.554 14.629 20.48l326.217 96.549c2.926 0 2.926 0 5.851 0s2.926 0 5.851 0l329.143-95.086c2.926 0 2.926 0 5.851-2.926 5.851-2.926 8.777-8.777 8.777-17.554v-115.566l14.629-33.646c2.926-5.851 2.926-11.703 0-14.629-2.926-5.851-5.851-8.777-11.703-11.703-2.926 0-5.851-2.926-8.777-2.926-5.851 0-24.869 0-30.72 0-2.926 0-5.851 0-8.777 2.926-8.777 2.926-14.629 14.629-11.703 24.869l14.629 33.646v93.623l-302.811-90.697c-2.926 0-2.926 0-5.851 0s-2.926 0-5.851 0l-169.691 49.737v-201.874h2.926c57.051-11.703 112.64-14.629 172.617-14.629s115.566 5.851 172.617 14.629h2.926v130.194c0 11.703 8.777 20.48 20.48 20.48s20.48-8.777 20.48-20.48v-146.286c0-8.777-5.851-17.554-14.629-20.48-64.366-11.703-133.12-17.554-200.411-17.554zM342.309 323.657l257.463-76.069 260.389 76.069-260.389 76.069-257.463-76.069zM314.514 127.634c-2.926 0-2.926 0-5.851 0l-294.034 93.623c-8.777 2.926-14.629 11.703-14.629 20.48v630.491c0 5.851 1.463 11.703 7.314 17.554 2.926 2.926 11.703 5.851 19.017 2.926l384.731-118.491 380.343 118.491c2.926 0 2.926 0 5.851 0s8.777 0 11.703-2.926c5.851-2.926 8.777-8.777 8.777-17.554v-403.749c0-11.703-8.777-20.48-20.48-20.48s-20.48 8.777-20.48 20.48v373.029l-348.16-111.177v-253.074c0-11.703-8.777-20.48-20.48-20.48s-20.48 8.777-20.48 20.48v256l-348.16 111.177v-592.457l280.869-87.771c11.703-2.926 17.554-14.629 11.703-24.869-2.926-5.851-8.777-11.703-17.554-11.703zM212.114 426.057c-2.926 0-2.926 0-5.851 0l-62.903 20.48c-5.851 1.463-8.777 4.389-11.703 8.777-2.926 5.851-2.926 8.777 0 14.629 2.926 8.777 11.703 14.629 20.48 14.629 2.926 0 2.926 0 5.851 0l62.903-20.48c11.703-2.926 17.554-14.629 11.703-24.869-2.926-8.777-11.703-13.166-20.48-13.166zM522.24 531.383c-2.926 5.851-1.463 21.943 10.24 24.869l124.343 39.497c2.926 0 2.926 0 5.851 0 8.777 0 17.554-5.851 20.48-14.629 2.926-11.703-2.926-20.48-11.703-24.869l-124.343-39.497c-5.851-1.463-17.554-1.463-24.869 14.629zM269.166 518.217l-124.343 39.497c-11.703 2.926-14.629 13.166-11.703 24.869 2.926 8.777 10.24 19.017 26.331 14.629l124.343-39.497c5.851-2.926 14.629-11.703 11.703-23.406-2.926-10.24-13.166-20.48-26.331-16.091zM541.257 623.543c-8.777 0-17.554 5.851-20.48 14.629-2.926 11.703 2.926 20.48 11.703 24.869l124.343 39.497c16.091 4.389 23.406-2.926 27.794-13.166 2.926-7.314-2.926-21.943-13.166-24.869l-124.343-39.497c-2.926-1.463-5.851-1.463-5.851-1.463zM275.017 623.543c-2.926 0-2.926 0-5.851 0l-124.343 39.497c-5.851 2.926-8.777 5.851-11.703 8.777-2.926 5.851-2.926 8.777 0 14.629 2.926 8.777 11.703 14.629 20.48 14.629 2.926 0 2.926 0 5.851 0l124.343-39.497c11.703-2.926 17.554-14.629 11.703-24.869-2.926-7.314-11.703-13.166-20.48-13.166z" />
<glyph unicode="&#xe92d;" glyph-name="lightbox-modal" data-tags="lightbox-modal" horiz-adv-x="965" d="M945.006 960h-921.6c-13.166 0-21.943-10.24-21.943-23.406v-966.949c0-13.166 10.24-23.406 23.406-23.406h917.211c13.166 0 23.406 10.24 23.406 23.406v966.949c2.926 13.166-7.314 23.406-20.48 23.406zM923.063-6.949h-871.863v921.6h873.326c-1.463 0-1.463-921.6-1.463-921.6zM166.766 497.737h182.857v-61.44h-182.857v61.44zM229.669 478.72h55.589v-19.017h-55.589v19.017zM806.034 625.006h-381.806c-2.926 0-5.851-2.926-5.851-5.851v-299.886c0-2.926 2.926-5.851 5.851-5.851h380.343c2.926 0 5.851 2.926 5.851 5.851v298.423c1.463 2.926-1.463 7.314-4.389 7.314zM776.777 360.229l-84.846 87.771h-2.926l-58.514-52.663-74.606 95.086c0 0 0 0-2.926 0 0 0 0 0-2.926 0l-90.697-119.954v215.040h318.903l-1.463-225.28zM681.691 494.811c16.091 0 29.257 13.166 29.257 29.257s-13.166 29.257-29.257 29.257-29.257-13.166-29.257-29.257c-2.926-13.166 10.24-29.257 29.257-29.257z" />
<glyph unicode="&#xe92e;" glyph-name="logo-carousel" data-tags="logo-carousel" horiz-adv-x="965" d="M95.086 393.874h64.366c7.314 0 13.166 7.314 13.166 13.166 0 7.314-2.926 13.166-13.166 13.166h-64.366c-7.314 1.463-14.629-5.851-14.629-13.166s7.314-13.166 14.629-13.166zM254.537 388.023v32.183c0 29.257-23.406 54.126-54.126 54.126h-146.286c-27.794 0-54.126-26.331-54.126-54.126v-32.183c0-27.794 24.869-54.126 54.126-54.126h146.286c29.257 1.463 54.126 26.331 54.126 54.126zM30.72 423.131c0 11.703 8.777 23.406 23.406 23.406h149.211c11.703 0 23.406-8.777 23.406-23.406v-29.257h-2.926v-2.926c0-11.703-8.777-23.406-23.406-23.406h-146.286c-11.703 0-23.406 8.777-23.406 23.406v32.183zM377.417 393.874h64.366c7.314 0 13.166 7.314 13.166 13.166 0 7.314-2.926 13.166-13.166 13.166h-64.366c-7.314 0-13.166-7.314-13.166-13.166s5.851-13.166 13.166-13.166zM337.92 474.331c-27.794 0-54.126-26.331-54.126-54.126v-32.183c0-27.794 26.331-54.126 54.126-54.126h146.286c27.794 0 54.126 26.331 54.126 54.126v32.183c0 29.257-23.406 54.126-54.126 54.126 0 0-146.286 0-146.286 0zM313.051 423.131c0 11.703 8.777 23.406 23.406 23.406h149.211c11.703 0 23.406-8.777 23.406-23.406v-29.257h-2.926v-2.926c0-11.703-8.777-23.406-23.406-23.406h-146.286c-11.703 0-23.406 8.777-23.406 23.406v32.183zM662.674 393.874h64.366c7.314 0 13.166 7.314 13.166 13.166s-5.851 14.629-13.166 14.629h-64.366c-7.314 0-13.166-7.314-13.166-13.166s7.314-14.629 13.166-14.629zM620.251 474.331c-27.794 0-54.126-26.331-54.126-54.126v-32.183c0-27.794 24.869-54.126 54.126-54.126h146.286c27.794 0 54.126 26.331 54.126 54.126v32.183c0 30.72-21.943 54.126-54.126 54.126 0 0-146.286 0-146.286 0zM596.846 423.131c0 11.703 8.777 23.406 23.406 23.406h149.211c11.703 0 23.406-8.777 23.406-23.406-1.463-4.389-2.926-14.629-2.926-32.183 0-11.703-8.777-23.406-23.406-23.406h-146.286c-11.703 0-23.406 8.777-23.406 23.406v32.183zM965.486 753.737c1.463 20.48-5.851 39.497-19.017 54.126s-30.72 21.943-51.2 21.943h-708.023c-40.96 0-71.68-32.183-71.68-71.68v-239.909c0-7.314 4.389-11.703 11.703-11.703h13.166c7.314 0 11.703 4.389 11.703 11.703v238.446c0 21.943 17.554 39.497 39.497 39.497h705.097c21.943 0 39.497-17.554 39.497-39.497v-620.251c0-21.943-17.554-39.497-39.497-39.497h-709.486c-21.943 0-39.497 17.554-39.497 39.497v150.674c0 10.24-7.314 16.091-16.091 16.091s-16.091-7.314-16.091-16.091v-149.211c0-40.96 32.183-71.68 71.68-71.68h705.097c40.96 0 71.68 32.183 71.68 71.68l1.463 615.863zM174.080 771.291h35.109v-35.109h-35.109v35.109zM229.669 771.291h35.109v-35.109h-35.109v35.109zM286.72 771.291h35.109v-35.109h-35.109v35.109zM174.080 714.24h737.28v-35.109h-737.28v35.109zM858.697 373.394c2.926-2.926 7.314-2.926 7.314-2.926v0l7.314 2.926 26.331 26.331c2.926 2.926 2.926 7.314 2.926 7.314v2.926h-2.926c0 0 0 1.463 0 2.926v1.463l-27.794 27.794c-2.926 2.926-5.851 2.926-7.314 2.926h-1.463l-5.851-2.926c-4.389-4.389-4.389-11.703 0-14.629l20.48-20.48-19.017-19.017c-4.389-4.389-4.389-11.703 0-14.629z" />
<glyph unicode="&#xe92f;" glyph-name="logo" data-tags="logo" horiz-adv-x="965" d="M905.509 698.149c29.257 26.331 48.274 64.366 48.274 106.789 0 78.994-64.366 143.36-143.36 143.36-43.886 0-83.383-20.48-109.714-51.2-65.829 33.646-140.434 51.2-217.966 51.2-266.24 0-482.743-216.503-482.743-482.743 0-141.897 61.44-270.629 159.451-358.4 0-4.389 0-8.777 0-13.166 0-78.994 64.366-143.36 143.36-143.36 38.034 0 73.143 14.629 98.011 39.497 26.331-4.389 54.126-7.314 81.92-7.314 266.24 0 482.743 216.503 482.743 482.743 0 84.846-21.943 163.84-59.977 232.594zM418.377 597.211h-155.063v-96.549h137.509v-65.829h-137.509v-103.863h155.063v-61.44h-232.594v392.046h232.594v-64.366zM741.669 268.069l-27.794 78.994h-156.526l-27.794-78.994h-81.92l143.36 389.12h89.234l143.36-389.12h-81.92zM577.829 407.040h114.103l-55.589 162.377z" />
<glyph unicode="&#xe930;" glyph-name="mailchimp" data-tags="mailchimp" horiz-adv-x="965" d="M943.543 930.743h-924.526c-10.24 0-19.017-8.777-19.017-19.017v-928.914c0-8.777 8.777-17.554 19.017-17.554h928.914c8.777 0 19.017 8.777 19.017 19.017v924.526c-1.463 13.166-10.24 21.943-23.406 21.943zM928.914 1.829h-892.343v760.686h890.88l1.463-760.686zM928.914 800.549h-892.343v89.234h890.88l1.463-89.234zM61.44 864.914h36.571v-36.571h-36.571v36.571zM127.269 864.914h36.571v-36.571h-36.571v36.571zM188.709 864.914h36.571v-36.571h-36.571v36.571zM184.32 551.863h595.383c8.777 0 19.017 8.777 19.017 19.017v96.549c0 8.777-8.777 19.017-19.017 19.017h-595.383c-8.777 0-19.017-8.777-19.017-19.017v-96.549c1.463-10.24 7.314-19.017 19.017-19.017zM203.337 648.411h555.886v-58.514h-555.886c0 0 0 58.514 0 58.514zM184.32 218.331h595.383c8.777 0 19.017 8.777 19.017 19.017v219.429c0 8.777-8.777 19.017-19.017 19.017h-595.383c-8.777 0-19.017-8.777-19.017-19.017v-220.891c1.463-8.777 7.314-17.554 19.017-17.554zM203.337 439.223h555.886v-182.857h-555.886c0 0 0 182.857 0 182.857zM605.623 104.229h-431.543c-4.389 0-8.777 4.389-8.777 8.777v20.48c0 4.389 4.389 8.777 8.777 8.777h431.543c4.389 0 8.777-4.389 8.777-8.777v-20.48c0-4.389-2.926-8.777-8.777-8.777z" />
<glyph unicode="&#xe931;" glyph-name="ninja-forms" data-tags="ninja-forms" horiz-adv-x="965" d="M708.023 532.846h-555.886c-19.017 0-30.72-14.629-30.72-30.72v-191.634c0-19.017 14.629-30.72 30.72-30.72h555.886c19.017 0 30.72 14.629 30.72 30.72v191.634c0 14.629-11.703 30.72-30.72 30.72zM708.023 309.029h-554.423v188.709h555.886l-1.463-188.709zM899.657 930.743h-833.829c-39.497 0-65.829-30.72-65.829-65.829v-835.291c0-36.571 30.72-64.366 65.829-64.366h835.291c38.034 0 65.829 30.72 65.829 65.829v833.829c-1.463 39.497-32.183 65.829-67.291 65.829zM35.109 804.937v59.977c0 14.629 14.629 30.72 30.72 30.72h835.291c14.629 0 30.72-14.629 30.72-30.72v-61.44l-896.731 1.463zM35.109 769.829h896.731v-735.817c0-14.629-14.629-30.72-30.72-30.72h-835.291c-14.629 0-30.72 14.629-30.72 30.72v735.817zM95.086 869.303h-14.629c-11.703 0-19.017-7.314-19.017-19.017s7.314-19.017 19.017-19.017h14.629c11.703 0 19.017 7.314 19.017 19.017s-7.314 19.017-19.017 19.017zM175.543 869.303h-14.629c-11.703 0-19.017-7.314-19.017-19.017s7.314-19.017 19.017-19.017h14.629c11.703 0 19.017 7.314 19.017 19.017s-7.314 19.017-19.017 19.017zM256 869.303h-14.629c-11.703 0-19.017-7.314-19.017-19.017s7.314-19.017 19.017-19.017h14.629c11.703 0 19.017 7.314 19.017 19.017s-7.314 19.017-19.017 19.017zM137.509 632.32h558.811c11.703 0 19.017 7.314 19.017 19.017s-7.314 19.017-19.017 19.017h-558.811c-11.703 0-19.017-7.314-19.017-19.017s11.703-19.017 19.017-19.017zM321.829 153.966h-175.543c-11.703 0-19.017-7.314-19.017-19.017s7.314-19.017 19.017-19.017h175.543c11.703 0 19.017 7.314 19.017 19.017s-7.314 19.017-19.017 19.017z" />
<glyph unicode="&#xe932;" glyph-name="offcanvas" data-tags="offcanvas" horiz-adv-x="965" d="M462.263 733.257h-270.629c-8.777 0-17.554-8.777-17.554-17.554v-103.863c-2.926-8.777 5.851-17.554 17.554-17.554h270.629c8.777 0 17.554 8.777 17.554 17.554v103.863c0 8.777-8.777 17.554-17.554 17.554zM441.783 633.783h-232.594v65.829h232.594v-65.829zM462.263 515.291h-270.629c-8.777 0-17.554-8.777-17.554-17.554v-103.863c-2.926-8.777 5.851-17.554 17.554-17.554h270.629c8.777 0 17.554 8.777 17.554 17.554v103.863c0 8.777-8.777 17.554-17.554 17.554zM441.783 414.354h-232.594v65.829h232.594v-65.829zM873.326 800.549h-14.629c-8.777 0-17.554-8.777-17.554-17.554 0-11.703 5.851-20.48 17.554-20.48h14.629c8.777 0 17.554 8.777 17.554 17.554s-5.851 20.48-17.554 20.48zM462.263 328.046h-270.629c-8.777 0-17.554-8.777-17.554-17.554s8.777-17.554 17.554-17.554h270.629c8.777 0 17.554 8.777 17.554 17.554s-8.777 17.554-17.554 17.554zM864.549 693.76h-143.36c-8.777 0-17.554-8.777-17.554-17.554 0-11.703 5.851-20.48 17.554-20.48h143.36c8.777 0 17.554 8.777 17.554 17.554s-5.851 20.48-17.554 20.48zM864.549 610.377h-143.36c-8.777 0-17.554-8.777-17.554-17.554 0-11.703 5.851-20.48 17.554-20.48h143.36c8.777 0 17.554 8.777 17.554 17.554s-5.851 20.48-17.554 20.48zM864.549 526.994h-143.36c-8.777 0-17.554-8.777-17.554-17.554 0-11.703 5.851-20.48 17.554-20.48h143.36c8.777 0 17.554 8.777 17.554 17.554s-5.851 20.48-17.554 20.48zM864.549 446.537h-143.36c-8.777 0-17.554-8.777-17.554-17.554 0-11.703 5.851-20.48 17.554-20.48h143.36c8.777 0 17.554 8.777 17.554 17.554s-5.851 20.48-17.554 20.48zM950.857 875.154v0h-934.766c-8.777-2.926-14.629-8.777-14.629-17.554v-798.72c0-20.48 14.629-35.109 35.109-35.109h911.36c8.777 0 17.554 8.777 17.554 17.554v816.274c2.926 8.777-5.851 17.554-14.629 17.554zM36.571 77.897v762.149h580.754v-778.24h-563.2c-8.777 0-17.554 8.777-17.554 16.091zM653.897 61.806v778.24h276.48v-762.149c0-8.777-8.777-17.554-17.554-17.554h-258.926v1.463z" />
<glyph unicode="&#xe933;" glyph-name="one-page-navigaton" data-tags="one-page-navigaton" horiz-adv-x="965" d="M942.080 955.611h-918.674c-13.166 0-23.406-10.24-23.406-23.406v-968.411c0-13.166 10.24-23.406 23.406-23.406h918.674c13.166 0 23.406 10.24 23.406 23.406v965.486c0 13.166-10.24 26.331-23.406 26.331zM459.337-12.8h-413.989v920.137h873.326v-270.629h-87.771c-23.406 0-39.497-16.091-39.497-39.497v-231.131c0-23.406 16.091-39.497 39.497-39.497h87.771v-339.383h-459.337zM920.137 597.211v-231.131h-87.771v231.131h87.771zM156.526 518.217h514.926c23.406 0 39.497 16.091 39.497 39.497v231.131c0 23.406-16.091 39.497-39.497 39.497h-514.926c-23.406 0-39.497-16.091-39.497-39.497v-231.131c0-23.406 16.091-39.497 39.497-39.497zM156.526 788.846h514.926v-231.131h-514.926v231.131zM345.234 424.594h-188.709c-23.406 0-39.497-17.554-39.497-39.497v-198.949c0-23.406 16.091-39.497 39.497-39.497h188.709c23.406 0 39.497 16.091 39.497 39.497v198.949c0 21.943-16.091 39.497-39.497 39.497zM345.234 186.149h-188.709v198.949h188.709v-198.949zM315.977 107.154h-169.691c-5.851 0-13.166-5.851-13.166-13.166v-13.166c0-5.851 5.851-13.166 13.166-13.166h169.691c5.851 0 13.166 5.851 13.166 13.166v13.166c0 10.24-5.851 13.166-13.166 13.166zM681.691 424.594h-188.709c-23.406 0-39.497-16.091-39.497-39.497v-198.949c0-23.406 16.091-39.497 39.497-39.497h188.709c23.406 0 39.497 16.091 39.497 39.497v198.949c0 21.943-16.091 39.497-39.497 39.497zM681.691 186.149h-188.709v198.949h188.709v-198.949zM652.434 107.154h-169.691c-5.851 0-13.166-5.851-13.166-13.166v-13.166c0-5.851 5.851-13.166 13.166-13.166h169.691c5.851 0 13.166 5.851 13.166 13.166v13.166c0 10.24-7.314 13.166-13.166 13.166zM896.731 544.549c0-10.503-8.514-19.017-19.017-19.017s-19.017 8.514-19.017 19.017c0 10.503 8.514 19.017 19.017 19.017s19.017-8.514 19.017-19.017zM877.714 462.629c10.24 0 19.017 10.24 19.017 19.017s-10.24 20.48-19.017 20.48c-10.24 0-19.017-10.24-19.017-19.017-1.463-13.166 5.851-20.48 19.017-20.48zM896.731 414.354c0-10.503-8.514-19.017-19.017-19.017s-19.017 8.514-19.017 19.017c0 10.503 8.514 19.017 19.017 19.017s19.017-8.514 19.017-19.017z" />
<glyph unicode="&#xe934;" glyph-name="parallax-effects" data-tags="parallax-effects" horiz-adv-x="965" d="M901.12 872.229h-832.366c-38.034 0-68.754-32.183-68.754-67.291v-713.874c0-38.034 32.183-67.291 67.291-67.291h829.44c38.034 0 67.291 32.183 67.291 67.291v713.874c4.389 38.034-27.794 67.291-62.903 67.291zM927.451 91.063c0-17.554-14.629-29.257-29.257-29.257h-829.44c-17.554 0-29.257 14.629-29.257 29.257v713.874c0 17.554 14.629 29.257 29.257 29.257h829.44c17.554 0 29.257-14.629 29.257-29.257v-713.874zM567.589 535.771c-26.331 29.257-64.366 43.886-103.863 43.886s-73.143-14.629-100.937-40.96c-26.331-26.331-40.96-61.44-40.96-100.937 0-38.034 14.629-73.143 40.96-103.863l78.994-78.994c26.331-29.257 64.366-43.886 103.863-43.886s73.143 14.629 100.937 40.96c27.794 26.331 40.96 61.44 40.96 100.937 0 38.034-14.629 73.143-40.96 103.863l-78.994 78.994zM626.103 273.92c-20.48-20.48-46.811-32.183-76.069-32.183s-58.514 11.703-81.92 35.109l-78.994 78.994c-20.48 20.48-32.183 49.737-32.183 78.994s11.703 58.514 32.183 78.994 46.811 32.183 76.069 32.183 58.514-11.703 81.92-35.109l78.994-81.92c20.48-20.48 32.183-49.737 32.183-78.994 0-26.331-11.703-55.589-32.183-76.069zM463.726 462.629c-2.926 2.926-5.851 5.851-11.703 5.851-2.926 0-8.777-2.926-11.703-5.851-5.851-5.851-5.851-17.554 0-23.406l32.183-32.183c2.926-2.926 5.851-5.851 11.703-5.851 2.926 0 8.777 2.926 11.703 5.851s5.851 5.851 5.851 11.703c0 2.926-2.926 8.777-5.851 11.703l-32.183 32.183zM396.434 614.766c2.926 0 5.851 2.926 8.777 2.926 2.926 2.926 5.851 8.777 2.926 11.703 0 5.851-5.851 11.703-14.629 11.703v0c-32.183-5.851-61.44-20.48-84.846-43.886s-38.034-52.663-43.886-84.846c0-2.926 0-8.777 2.926-11.703s5.851-5.851 8.777-5.851h1.463c5.851 0 11.703 5.851 14.629 11.703 5.851 26.331 17.554 49.737 38.034 67.291 14.629 23.406 39.497 35.109 65.829 40.96zM411.063 680.594c2.926 0 5.851 2.926 8.777 2.926 2.926 2.926 5.851 8.777 2.926 11.703 0 5.851-5.851 11.703-14.629 11.703v0c-52.663-8.777-103.863-32.183-141.897-70.217s-64.366-84.846-73.143-138.971c0-2.926 0-8.777 2.926-11.703s5.851-5.851 8.777-5.851h2.926c5.851 0 11.703 5.851 14.629 11.703 8.777 46.811 32.183 92.16 64.366 124.343 32.183 35.109 77.531 55.589 124.343 64.366z" />
</font>
</defs>
</svg>
